<?xml version="1.0" standalone="no"?>
<!DOCTYPE svg PUBLIC "-//W3C//DTD SVG 1.1//EN" "http://www.w3.org/Graphics/SVG/1.1/DTD/svg11.dtd" >
<svg xmlns="http://www.w3.org/2000/svg" xmlns:xlink="http://www.w3.org/1999/xlink" version="1.1">
<metadata>
Created by FontForge 20170731 at Wed Jul  5 12:22:31 2017
 By Aleksey,,,
Copyright 2011 The Maven Pro Project Authors (http://www.vissol.co.uk/mavenpro/), with Reserved Font Name "Maven Pro".
</metadata>
<defs>
<font id="MavenPro-Medium" horiz-adv-x="0" >
  <font-face 
    font-family="Maven Pro Medium"
    font-weight="500"
    font-stretch="normal"
    units-per-em="1000"
    panose-1="0 0 6 0 0 0 0 0 0 0"
    ascent="800"
    descent="-200"
    x-height="502"
    cap-height="667"
    bbox="-509 -210 1242 1041"
    underline-thickness="50"
    underline-position="-150"
    unicode-range="U+000D-FB02"
  />
<missing-glyph horiz-adv-x="500" 
 />
    <glyph glyph-name="fi" unicode="fi" horiz-adv-x="628" 
d="M116 415h-80v87h81v20q0 116 51.5 154t123.5 38q28 0 56 -7v-93q-12 6 -21 9t-22 3q-25 0 -42.5 -6t-29 -26.5t-11.5 -62.5v-29h126v-87h-127v-415h-105v415zM442 677h112v-95h-112v95zM445 499h105l1 -499h-106v499z" />
    <glyph glyph-name="fl" unicode="fl" horiz-adv-x="622" 
d="M116 415h-80v87h81v20q0 116 51.5 154t123.5 38q28 0 56 -7v-93q-12 6 -21 9t-22 3q-25 0 -42.5 -6t-29 -26.5t-11.5 -62.5v-29h126v-87h-127v-415h-105v415zM443 0v692h104v-692h-104z" />
    <glyph glyph-name=".notdef" horiz-adv-x="500" 
 />
    <glyph glyph-name=".null" 
 />
    <glyph glyph-name="nonmarkingreturn" unicode="&#xd;" horiz-adv-x="284" 
 />
    <glyph glyph-name="NULL" 
 />
    <glyph glyph-name="NULL" 
 />
    <glyph glyph-name="space" unicode=" " horiz-adv-x="284" 
 />
    <glyph glyph-name="exclam" unicode="!" horiz-adv-x="390" 
d="M147 667h103l-12 -492h-79zM147 94h103v-94h-103v94z" />
    <glyph glyph-name="quotedbl" unicode="&#x22;" horiz-adv-x="398" 
d="M81 676h95l-17 -201h-60zM220 676h96l-18 -201h-60z" />
    <glyph glyph-name="numbersign" unicode="#" horiz-adv-x="602" 
d="M151 124h-79v70h90l25 147h-87v69h100l19 113h71l-19 -113h124l20 113h72l-21 -113h69v-69h-80l-26 -147h78v-70h-89l-18 -105h-72l18 105h-124l-19 -105h-71zM358 194l26 147h-125l-25 -147h124z" />
    <glyph glyph-name="dollar" unicode="$" horiz-adv-x="564" 
d="M468 60q-44 -55 -132 -68v-87h-90v84q-55 3 -96.5 15.5t-87.5 36.5v110q39 -32 95.5 -51.5t118.5 -19.5q61 0 92 25t31 71q0 31 -18 51t-45 33t-76 31l-22 8q-55 19 -90.5 39t-59.5 57t-24 95q0 43 19 82.5t60 67.5t103 36v78h90v-77q37 -3 67 -13.5t71 -30.5v-108
q-51 32 -88 47.5t-88 15.5q-59 0 -90 -24t-31 -63q0 -33 17 -53.5t44.5 -33t79.5 -29.5q61 -20 101.5 -41.5t66.5 -59t26 -95.5q0 -74 -44 -129z" />
    <glyph glyph-name="percent" unicode="%" horiz-adv-x="787" 
d="M75.5 356q-37.5 46 -37.5 138t37.5 138t114.5 46t114 -46t37 -138t-37 -138t-114 -46t-114.5 46zM239 401q22 26 22 93q0 68 -22 94t-49 26t-49 -26t-22 -94q0 -67 22 -93t49 -26t49 26zM483.5 38q-37.5 46 -37.5 138t37.5 138t114.5 46t114 -46t37 -138t-37 -138
t-114 -46t-114.5 46zM647 83q22 26 22 93q0 68 -22 94t-49 26t-49 -26t-22 -94q0 -67 22 -93t49 -26t49 26zM552 685h85l-407 -707h-85z" />
    <glyph glyph-name="ampersand" unicode="&#x26;" horiz-adv-x="659" 
d="M493 0l-49 59q-80 -69 -185 -69q-68 0 -115.5 28.5t-71.5 72t-24 87.5q0 52 31.5 103t103.5 91l-5 6q-64 80 -64 137q0 43 23.5 80t65 59t90.5 22t88.5 -20t61.5 -55t22 -78q0 -54 -33 -91t-103 -78l127 -152q13 23 20.5 44.5t14.5 49.5h85q-6 -34 -23.5 -77.5
t-41.5 -82.5l114 -136h-132zM241.5 562.5q-21.5 -20.5 -21.5 -49.5q0 -17 19 -46t41 -54l1 -1q51 28 68.5 52t17.5 51q0 30 -20.5 49t-52.5 19q-31 0 -52.5 -20.5zM333.5 93q29.5 13 53.5 34l-149 179q-42 -29 -60.5 -61t-18.5 -60q0 -36 25.5 -70.5t89.5 -34.5
q30 0 59.5 13z" />
    <glyph glyph-name="quotesingle" unicode="'" horiz-adv-x="260" 
d="M81 676h95l-17 -201h-60z" />
    <glyph glyph-name="parenleft" unicode="(" horiz-adv-x="349" 
d="M114.5 67.5q-38.5 109.5 -38.5 237.5t38.5 238.5t87.5 180.5h97q-39 -70 -75 -178.5t-36 -240.5q0 -131 36 -239.5t75 -178.5h-97q-49 71 -87.5 180.5z" />
    <glyph glyph-name="parenright" unicode=")" horiz-adv-x="349" 
d="M126 66q36 108 36 240q0 131 -36 239t-76 179h97q49 -70 88 -180t39 -238q0 -129 -39 -239.5t-88 -179.5h-97q40 71 76 179z" />
    <glyph glyph-name="asterisk" unicode="*" horiz-adv-x="412" 
d="M184 542l-70 -50l-30 54l84 35l-84 36l30 52l70 -49l-9 83h61l-7 -83l68 49l31 -52l-83 -36l83 -35l-31 -54l-68 50l7 -82h-61z" />
    <glyph glyph-name="plus" unicode="+" horiz-adv-x="551" 
d="M237 261h-141v76h141v141h76v-141h140v-76h-140v-140h-76v140z" />
    <glyph glyph-name="comma" unicode="," horiz-adv-x="329" 
d="M148 84h99l-87 -196h-86z" />
    <glyph glyph-name="hyphen" unicode="-" horiz-adv-x="464" 
d="M79 344h305v-85h-305v85z" />
    <glyph glyph-name="period" unicode="." horiz-adv-x="261" 
d="M71 117h119v-117h-119v117z" />
    <glyph glyph-name="slash" unicode="/" horiz-adv-x="422" 
d="M353 756h84l-368 -854h-83z" />
    <glyph glyph-name="zero" unicode="0" horiz-adv-x="655" 
d="M121 74q-68 86 -68 258q0 344 274 344q139 0 207 -86t68 -258q0 -173 -67.5 -258.5t-207.5 -85.5q-138 0 -206 86zM408.5 100.5q35.5 18.5 59 73.5t23.5 158q0 147 -45.5 198.5t-118.5 51.5q-72 0 -117.5 -51.5t-45.5 -198.5q0 -148 45 -199t118 -51q46 0 81.5 18.5z" />
    <glyph glyph-name="one" unicode="1" horiz-adv-x="459" 
d="M216 557l-132 -81v110l134 81h108v-667h-110v557z" />
    <glyph glyph-name="two" unicode="2" horiz-adv-x="593" 
d="M515 104v-104h-441v85q67 45 140.5 112t126 141t52.5 135q0 49 -33 79.5t-106 30.5q-87 0 -174 -65v104q93 56 198 56q113 0 169.5 -54.5t56.5 -141.5q0 -94 -80 -188.5t-199 -189.5h290z" />
    <glyph glyph-name="three" unicode="3" horiz-adv-x="588" 
d="M77 38v102q91 -54 177 -54q76 0 117 27.5t41 79.5q0 54 -40.5 83t-120.5 29h-84v91h86q61 0 93.5 24.5t32.5 67.5q0 46 -36 69.5t-101 23.5q-39 0 -75 -9t-75 -28v94q76 38 161 38q71 0 123 -23.5t79 -64.5t27 -93q0 -40 -18 -69.5t-40.5 -46t-33.5 -18.5q17 -4 46.5 -25
t53 -58.5t23.5 -88.5q0 -58 -29 -102.5t-85.5 -69.5t-135.5 -25q-94 0 -186 46z" />
    <glyph glyph-name="four" unicode="4" horiz-adv-x="599" 
d="M346 191h-308v94l308 382h111v-385h91v-91h-91v-191h-111v191zM346 282v249l-203 -249h203z" />
    <glyph glyph-name="five" unicode="5" horiz-adv-x="580" 
d="M464 380q63 -50 63 -166q0 -123 -68 -173.5t-171 -50.5q-61 0 -111 13.5t-83 33.5v107q28 -22 75.5 -39.5t107.5 -17.5q139 0 139 122q0 70 -35.5 95.5t-95.5 25.5q-55 0 -85.5 -9t-58.5 -21l-57 60l38 307h358v-100h-279l-16 -152q56 15 122 15q94 0 157 -50z" />
    <glyph glyph-name="six" unicode="6" horiz-adv-x="601" 
d="M486.5 374.5q59.5 -56.5 59.5 -159.5q0 -60 -26.5 -111t-82.5 -82.5t-139 -31.5q-242 0 -242 316q0 219 99 295.5t216 76.5q68 0 118 -18v-97q-53 20 -108 20q-44 0 -90 -19.5t-80.5 -68t-41.5 -127.5q25 27 62.5 45t85.5 18q110 0 169.5 -56.5zM406 128q28 42 28 89
q0 61 -33.5 93t-95.5 32q-48 0 -83 -17.5t-54 -44.5q5 -78 23 -120.5t45.5 -58t66.5 -15.5q75 0 103 42z" />
    <glyph glyph-name="seven" unicode="7" horiz-adv-x="582" 
d="M534 667v-79l-266 -588h-122l264 562h-341v105h465z" />
    <glyph glyph-name="eight" unicode="8" horiz-adv-x="603" 
d="M162 18q-56 28 -82.5 74.5t-26.5 101.5q0 69 38 105.5t77 54.5q-28 12 -60 47t-32 96q0 81 55.5 131t170.5 50t171 -50t56 -131q0 -62 -29.5 -95t-60.5 -48q35 -14 73.5 -52t38.5 -108q0 -55 -26 -101.5t-82 -74.5t-141 -28q-84 0 -140 28zM384.5 416q31.5 27 31.5 74
q0 48 -33 70.5t-81 22.5t-81 -22.5t-33 -70.5q0 -47 32 -74t82 -27q51 0 82.5 27zM408.5 122.5q28.5 39.5 28.5 82.5q0 50 -35 79t-100 29q-64 0 -99 -29t-35 -79q0 -43 28.5 -82.5t105.5 -39.5q78 0 106.5 39.5z" />
    <glyph glyph-name="nine" unicode="9" horiz-adv-x="605" 
d="M546 362q0 -219 -99 -295.5t-216 -76.5q-68 0 -118 18v97q53 -20 108 -20q44 0 90 19.5t80.5 68t41.5 127.5q-25 -27 -62.5 -45t-85.5 -18q-110 0 -169.5 56.5t-59.5 159.5q0 60 26.5 111t80.5 82.5t134 31.5q249 0 249 -316zM379.5 344q35.5 18 54.5 45q-5 78 -23 120.5
t-46 57.5t-68 15q-73 0 -101.5 -42t-28.5 -89q0 -61 34 -93t96 -32q47 0 82.5 18z" />
    <glyph glyph-name="colon" unicode=":" horiz-adv-x="401" 
d="M152 453h99v-97h-99v97zM152 142h99v-98h-99v98z" />
    <glyph glyph-name="semicolon" unicode=";" horiz-adv-x="295" 
d="M105 453h119v-117h-119v117zM106 90h112l-94 -202h-85z" />
    <glyph glyph-name="less" unicode="&#x3c;" horiz-adv-x="662" 
d="M120 231v75l415 187v-97l-304 -127l304 -129v-96z" />
    <glyph glyph-name="equal" unicode="=" horiz-adv-x="638" 
d="M126 424h387v-83h-387v83zM126 256h387v-84h-387v84z" />
    <glyph glyph-name="greater" unicode="&#x3e;" horiz-adv-x="652" 
d="M127 140l303 129l-303 127v97l414 -187v-75l-414 -187v96z" />
    <glyph glyph-name="question" unicode="?" horiz-adv-x="497" 
d="M189 213q0 49 13 83.5t31.5 55.5t47.5 46q29 26 43 44.5t14 45.5q0 99 -119 99q-42 0 -79 -13.5t-60 -32.5v93q16 12 57 26.5t92 14.5q50 0 96 -18.5t75.5 -60.5t29.5 -109q0 -48 -18.5 -76t-55.5 -60q-25 -22 -40 -39t-25.5 -42.5t-10.5 -60.5v-34h-91v38zM183 94h103
v-94h-103v94z" />
    <glyph glyph-name="at" unicode="@" horiz-adv-x="913" 
d="M260.5 -114.5q-75.5 34.5 -127 108.5t-51.5 187q0 119 63.5 215.5t163 151t201.5 54.5q72 0 148.5 -34t129.5 -107.5t53 -183.5q0 -68 -20 -125t-57.5 -90t-89.5 -33q-35 0 -57.5 15.5t-33.5 38.5q-44 -54 -142 -54q-72 0 -113 31.5t-41 87.5q0 57 47 101t173 44
q25 0 67 -4q1 3 1 10q0 6 -1 9q-1 33 -19 52t-72 19q-71 0 -129 -22l9 67q70 22 122 22q78 0 118.5 -35.5t40.5 -104.5q0 -28 -4 -58t-5 -36q-8 -56 -8 -78q0 -60 53 -60q25 0 52 22.5t45 68t18 110.5q0 89 -43 152.5t-109 96t-134 32.5q-96 0 -184 -50.5t-141.5 -137
t-53.5 -188.5q0 -114 53 -177.5t118 -85.5t113 -22q125 0 216 50l-10 -54q-86 -40 -211 -40q-73 0 -148.5 34.5zM520 115q25 17 32 40.5t13 70.5q-27 3 -58 3q-150 0 -150 -81q0 -50 84 -50q54 0 79 17z" />
    <glyph glyph-name="A" unicode="A" horiz-adv-x="664" 
d="M465 181h-273l-65 -181h-110l260 667h117l253 -667h-116zM432 271l-104 286l-103 -286h207z" />
    <glyph glyph-name="B" unicode="B" horiz-adv-x="646" 
d="M561 298q33 -41 33 -104q0 -98 -66 -146t-179 -48h-270v667h247q117 0 173.5 -47t56.5 -134q0 -49 -21.5 -77.5t-58.5 -51.5q52 -18 85 -59zM189 389h150q47 0 76.5 19t29.5 69q0 53 -29.5 75t-85.5 22h-141v-185zM445 115.5q36 23.5 36 83.5t-37.5 80.5t-98.5 20.5h-155
v-208h158q61 0 97 23.5z" />
    <glyph glyph-name="C" unicode="C" horiz-adv-x="625" 
d="M48 334q0 344 317 344q103 0 207 -49v-99q-96 56 -193 56q-112 0 -164.5 -60t-52.5 -193t53 -191.5t167 -58.5q98 0 190 54v-99q-46 -23 -100.5 -35.5t-106.5 -12.5q-317 0 -317 344z" />
    <glyph glyph-name="D" unicode="D" horiz-adv-x="686" 
d="M79 667h234q320 0 320 -333q0 -334 -320 -334h-234v667zM302 93q112 0 165 58t53 183t-53 183t-165 58h-113v-482h113z" />
    <glyph glyph-name="E" unicode="E" horiz-adv-x="586" 
d="M79 667h437v-93h-326v-193h284v-94h-285v-194h327v-93h-437v667z" />
    <glyph glyph-name="F" unicode="F" horiz-adv-x="552" 
d="M79 667h428v-93h-318v-199h278v-94h-278v-281h-110v667z" />
    <glyph glyph-name="G" unicode="G" horiz-adv-x="695" 
d="M134 74q-81 86 -81 260q0 173 81 258.5t234 85.5q119 0 223 -46v-106q-61 29 -110 44.5t-99 15.5q-111 0 -164.5 -60t-53.5 -192t53.5 -192t161.5 -60q73 0 127 20v159h-140v94h250v-306q-117 -61 -247 -61q-154 0 -235 86z" />
    <glyph glyph-name="H" unicode="H" horiz-adv-x="687" 
d="M79 667h110v-287h308v287h111v-667h-111v284h-308v-284h-110v667z" />
    <glyph glyph-name="I" unicode="I" horiz-adv-x="269" 
d="M79 667h111v-667h-111v667z" />
    <glyph glyph-name="J" unicode="J" horiz-adv-x="464" 
d="M41 26v106q64 -47 120 -47q58 0 85.5 28.5t27.5 93.5v460h111v-467q0 -115 -58.5 -162.5t-143.5 -47.5q-75 0 -142 36z" />
    <glyph glyph-name="K" unicode="K" horiz-adv-x="642" 
d="M251 284l-61 -67v-217h-111v667h111v-324l268 324h140l-271 -299l293 -368h-145z" />
    <glyph glyph-name="L" unicode="L" horiz-adv-x="537" 
d="M79 667h111v-573h319v-94h-430v667z" />
    <glyph glyph-name="M" unicode="M" horiz-adv-x="811" 
d="M732 667v-667h-110v509l-223 -308l-213 306v-507h-107v667h115l210 -310l215 310h113z" />
    <glyph glyph-name="N" unicode="N" horiz-adv-x="723" 
d="M644 667v-667h-99l-361 496v-496h-105v667h106l354 -490v490h105z" />
    <glyph glyph-name="O" unicode="O" horiz-adv-x="727" 
d="M133 75q-80 87 -80 258q0 170 79 257.5t231 87.5q151 0 231 -86.5t80 -258.5q0 -170 -79.5 -257.5t-231.5 -87.5q-150 0 -230 87zM512.5 143.5q47.5 59.5 47.5 190.5q0 130 -48 189t-149 59t-149 -59t-48 -190t48 -190t149 -59q102 0 149.5 59.5z" />
    <glyph glyph-name="P" unicode="P" horiz-adv-x="635" 
d="M189 0h-110v667h264q115 0 177 -53.5t62 -157.5t-62.5 -160.5t-176.5 -56.5h-154v-239zM329 333q79 0 108.5 32.5t29.5 86.5q0 56 -29.5 89t-108.5 33h-140v-241h140z" />
    <glyph glyph-name="Q" unicode="Q" horiz-adv-x="727" 
d="M611 -19q16 0 29 4t33 16v-79q-35 -19 -79 -19t-81 22.5t-60 68.5q-40 -9 -90 -9q-310 0 -310 348t310 348q311 0 311 -348q0 -223 -128 -303q28 -49 65 -49zM214 528q-48 -60 -48 -195q0 -137 47 -199v46q20 22 52.5 38.5t74.5 16.5q52 0 93.5 -29.5t69.5 -82.5
q29 31 43 82.5t14 128.5q0 134 -47.5 194t-149.5 60q-101 0 -149 -60zM363 72q31 2 55 6q-36 74 -95 74q-51 0 -92 -38q46 -42 132 -42z" />
    <glyph glyph-name="R" unicode="R" horiz-adv-x="665" 
d="M486 0l-156 252h-141v-252h-110v667h296q105 0 160.5 -50.5t55.5 -150.5q0 -72 -39.5 -126t-106.5 -69l178 -271h-137zM189 342h155q66 0 98.5 29t32.5 88q0 57 -26.5 86t-86.5 29h-173v-232z" />
    <glyph glyph-name="S" unicode="S" horiz-adv-x="564" 
d="M164 0.5q-48 12.5 -102 40.5v110q39 -32 95.5 -51.5t118.5 -19.5q61 0 92 25t31 71q0 31 -18 51t-45 33t-76 31l-22 8q-55 19 -90.5 39t-59.5 57t-24 95q0 48 24 91t75 70.5t128 27.5q56 0 93.5 -10.5t89.5 -35.5v-108q-51 32 -88 47.5t-88 15.5q-59 0 -90 -24t-31 -63
q0 -33 17 -53.5t44.5 -33t79.5 -29.5q61 -20 101.5 -41.5t66.5 -59t26 -95.5q0 -55 -24.5 -100.5t-76 -73t-128.5 -27.5q-71 0 -119 12.5z" />
    <glyph glyph-name="T" unicode="T" horiz-adv-x="585" 
d="M237 574h-215v93h541v-93h-216v-574h-110v574z" />
    <glyph glyph-name="U" unicode="U" horiz-adv-x="706" 
d="M151 55q-72 70 -72 207v405h113v-404q0 -94 41 -139.5t123 -45.5q165 0 165 185v404h106v-405q0 -135 -71 -206t-196 -71q-137 0 -209 70z" />
    <glyph glyph-name="V" unicode="V" horiz-adv-x="660" 
d="M643 667l-258 -667h-115l-253 667h124l194 -538l192 537z" />
    <glyph glyph-name="W" unicode="W" horiz-adv-x="990" 
d="M965 667l-203 -667h-110l-157 501l-157 -501h-111l-202 667h119l148 -528l156 528h95l157 -527l146 527h119z" />
    <glyph glyph-name="X" unicode="X" horiz-adv-x="628" 
d="M478 0l-173 249l-164 -249h-126l230 337l-229 330h135l170 -244l161 244h126l-226 -333l232 -334h-136z" />
    <glyph glyph-name="Y" unicode="Y" horiz-adv-x="638" 
d="M377 298v-298h-110v299l-251 368h135l178 -277l171 277h119z" />
    <glyph glyph-name="Z" unicode="Z" horiz-adv-x="620" 
d="M556 583l-358 -490h358v-93h-496v87l364 487h-356v93h488v-84z" />
    <glyph glyph-name="bracketleft" unicode="[" horiz-adv-x="389" 
d="M103 696h217v-96h-107v-620h107v-96h-217v812z" />
    <glyph glyph-name="backslash" unicode="\" horiz-adv-x="387" 
d="M-37 756h84l367 -854h-83z" />
    <glyph glyph-name="bracketright" unicode="]" horiz-adv-x="391" 
d="M78 -20h106v620h-106v96h217v-812h-217v96z" />
    <glyph glyph-name="asciicircum" unicode="^" horiz-adv-x="569" 
d="M244 690h60l115 -218h-75l-69 147l-70 -147h-75z" />
    <glyph glyph-name="underscore" unicode="_" horiz-adv-x="546" 
d="M0 -24h546v-61h-546v61z" />
    <glyph glyph-name="grave" unicode="`" horiz-adv-x="237" 
d="M39 677h104l53 -118h-62z" />
    <glyph glyph-name="a" unicode="a" horiz-adv-x="562" 
d="M430.5 473.5q57.5 -39.5 56.5 -127.5v-240q0 -68 -60 -94.5t-171 -26.5q-89 0 -147 37t-58 124q0 82 47.5 123t134.5 41q90 0 150 -36v48q0 102 -123 102q-44 0 -88 -13.5t-73 -37.5v98q28 18 81.5 30t110.5 12q82 0 139.5 -39.5zM357 76q26 9 26 36v97q-51 22 -112 22
q-57 0 -86.5 -20t-29.5 -60q0 -42 33.5 -63t79.5 -21q63 0 89 9z" />
    <glyph glyph-name="b" unicode="b" horiz-adv-x="583" 
d="M477 446q58 -67 58 -190q0 -148 -69.5 -209.5t-176.5 -61.5q-215 0 -215 114v604h104v-221q29 14 65.5 22.5t63.5 8.5q112 0 170 -67zM395.5 123q32.5 47 32.5 129q0 84 -34.5 128t-102.5 44q-28 0 -58.5 -7.5t-54.5 -21.5v-270q0 -49 103 -49q82 0 114.5 47z" />
    <glyph glyph-name="c" unicode="c" horiz-adv-x="496" 
d="M118.5 51q-70.5 61 -70.5 197q0 140 69.5 202.5t176.5 62.5q81 0 154 -30v-94q-76 32 -139 32q-79 0 -118 -39.5t-39 -125.5q0 -90 38 -131.5t122 -41.5q68 0 137 33v-94q-72 -32 -154 -32q-106 0 -176.5 61z" />
    <glyph glyph-name="d" unicode="d" horiz-adv-x="586" 
d="M512 712v-606q0 -40 -33 -67.5t-83 -40.5t-103 -13q-107 0 -176 60.5t-69 211.5q0 121 59 189t175 68q27 0 62.5 -7t63.5 -21v226h104zM408 395q-24 14 -53.5 21.5t-57.5 7.5q-142 0 -142 -169q0 -84 32 -131.5t112 -47.5q46 0 77.5 11t31.5 29v279z" />
    <glyph glyph-name="e" unicode="e" horiz-adv-x="553" 
d="M452.5 438.5q54.5 -75.5 53.5 -211.5h-352q5 -74 43.5 -112.5t109.5 -38.5q46 0 88 11.5t74 29.5v-98q-78 -34 -179 -34q-113 0 -177.5 68.5t-64.5 194.5q0 129 61 197.5t172 68.5q117 0 171.5 -75.5zM195 400q-30 -28 -39 -95h243q-7 64 -36 93.5t-85 29.5
q-53 0 -83 -28z" />
    <glyph glyph-name="f" unicode="f" horiz-adv-x="383" 
d="M116 415h-80v87h81v20q0 116 51.5 154t123.5 38q28 0 56 -7v-93q-12 6 -21 9t-22 3q-25 0 -42.5 -6t-29 -26.5t-11.5 -62.5v-29h126v-87h-127v-415h-105v415z" />
    <glyph glyph-name="g" unicode="g" horiz-adv-x="579" 
d="M452.5 480q55.5 -33 55.5 -97v-398q0 -86 -56 -140t-178 -54q-89 0 -162 27v96q83 -31 154 -31q80 0 109 28.5t29 75.5v34q-29 -16 -63.5 -26t-67.5 -10q-110 2 -167.5 67t-57.5 185q0 156 72 216t192 60q85 0 140.5 -33zM189 116.5q34 -45.5 101 -45.5q65 0 114 29v263
q0 35 -26.5 48t-71.5 13q-85 0 -118 -49t-33 -135q0 -78 34 -123.5z" />
    <glyph glyph-name="h" unicode="h" horiz-adv-x="591" 
d="M517 311v-311h-105v298q0 61 -29 93t-86 32q-61 0 -118 -33l-1 -390h-104v714h105v-242q75 41 148 41q190 0 190 -202z" />
    <glyph glyph-name="i" unicode="i" horiz-adv-x="260" 
d="M74 677h112v-95h-112v95zM77 499h105l1 -499h-106v499z" />
    <glyph glyph-name="j" unicode="j" horiz-adv-x="283" 
d="M98 680h111v-95h-111v95zM9 -103q52 -1 72 20t20 67v518h105l1 -520q0 -175 -198 -175v90z" />
    <glyph glyph-name="k" unicode="k" horiz-adv-x="544" 
d="M380 0l-202 225v-225h-104v692h105l-1 -378l183 188h129l-228 -218l254 -284h-136z" />
    <glyph glyph-name="l" unicode="l" horiz-adv-x="252" 
d="M74 0v692h104v-692h-104z" />
    <glyph glyph-name="m" unicode="m" horiz-adv-x="897" 
d="M774.5 469q48.5 -44 48.5 -137v-332h-105v318q0 105 -119 105q-53 0 -97 -27q7 -27 7 -64v-332h-105v318q0 105 -119 105q-54 0 -106 -19v-404h-105v461q45 23 109.5 37.5t123.5 14.5q98 0 146 -38q81 38 168 38q105 0 153.5 -44z" />
    <glyph glyph-name="n" unicode="n" horiz-adv-x="586" 
d="M183.5 498.5q64.5 14.5 123.5 14.5q105 0 155 -44t50 -137v-332h-105v318q0 105 -119 105q-57 0 -109 -19v-404h-105v461q45 23 109.5 37.5z" />
    <glyph glyph-name="o" unicode="o" horiz-adv-x="578" 
d="M108.5 53q-60.5 68 -60.5 198q0 263 240 263q121 0 182 -67.5t61 -195.5t-63 -197t-179 -69q-120 0 -180.5 68zM426 251q0 88 -33 131.5t-105 43.5q-73 0 -104.5 -44.5t-31.5 -130.5t32.5 -131.5t103.5 -45.5q138 0 138 177z" />
    <glyph glyph-name="p" unicode="p" horiz-adv-x="583" 
d="M468.5 450q66.5 -64 66.5 -208q0 -118 -61 -187t-171 -69q-27 0 -62 7t-63 21v-215h-104v606q0 57 64.5 83t154.5 26q109 0 175.5 -64zM391.5 118.5q36.5 43.5 36.5 125.5q0 85 -30.5 132t-108.5 47q-50 0 -80.5 -11t-30.5 -30v-278q49 -29 106 -29q71 0 107.5 43.5z" />
    <glyph glyph-name="q" unicode="q" horiz-adv-x="583" 
d="M509 384v-591h-104v222q-28 -15 -61.5 -22t-60.5 -7q-113 0 -174 67t-61 187q0 273 257 273q204 0 204 -129zM192.5 119q37.5 -44 105.5 -44q58 0 107 29v268q0 24 -30.5 37t-70.5 13q-84 0 -116.5 -47t-32.5 -131q0 -81 37.5 -125z" />
    <glyph glyph-name="r" unicode="r" horiz-adv-x="399" 
d="M74 456q28 17 95 37t133 20q40 0 68 -13v-84q-28 4 -67 4q-66 0 -124 -10v-410h-105v456z" />
    <glyph glyph-name="s" unicode="s" horiz-adv-x="467" 
d="M132.5 -5q-36.5 10 -78.5 30v99q45 -28 82 -41.5t83 -13.5q43 0 67.5 17.5t24.5 45.5q0 27 -20 40t-62 28l-23 8q-70 17 -111.5 49t-41.5 100q0 53 28 88t70.5 51t89.5 16q48 -1 81 -11.5t72 -30.5v-90q-52 27 -78.5 37t-63.5 10q-41 0 -66 -15t-25 -42q0 -32 25 -46.5
t78 -29.5q50 -14 79.5 -27t52 -42.5t22.5 -80.5q-1 -80 -58.5 -119.5t-140.5 -39.5q-50 0 -86.5 10z" />
    <glyph glyph-name="t" unicode="t" horiz-adv-x="384" 
d="M145 24q-39 37 -39 105v286h-81v87h81v140h108v-140h122v-87h-122v-265q0 -37 13 -53.5t46 -16.5q16 0 33.5 4.5t29.5 11.5v-93q-35 -16 -83 -16q-69 0 -108 37z" />
    <glyph glyph-name="u" unicode="u" horiz-adv-x="588" 
d="M132.5 36.5q-58.5 51.5 -58.5 150.5v315h105v-300q0 -64 28.5 -94.5t88.5 -30.5t88.5 30.5t28.5 94.5v300h101v-315q0 -99 -57 -150.5t-161 -51.5q-105 0 -163.5 51.5z" />
    <glyph glyph-name="v" unicode="v" horiz-adv-x="589" 
d="M559 502l-212 -502h-105l-211 502h113l159 -387l147 387h109z" />
    <glyph glyph-name="w" unicode="w" horiz-adv-x="809" 
d="M779 502l-167 -502h-100l-108 357l-107 -357h-99l-167 502h112l112 -378l106 378h87l109 -380l114 380h108z" />
    <glyph glyph-name="x" unicode="x" horiz-adv-x="558" 
d="M342 253l184 -253h-128l-127 176l-128 -176h-114l188 250l-183 252h127l127 -174l125 174h115z" />
    <glyph glyph-name="y" unicode="y" horiz-adv-x="563" 
d="M532 502l-207 -533q-64 -163 -173 -163q-39 0 -66 12v90q25 -10 50 -10q39 0 61.5 26t38.5 79l-205 499h119l137 -375l136 375h109z" />
    <glyph glyph-name="z" unicode="z" horiz-adv-x="471" 
d="M426 416l-255 -328h255v-88h-381v88l265 331h-259v83h375v-86z" />
    <glyph glyph-name="braceleft" unicode="{" horiz-adv-x="381" 
d="M136 43v149q0 30 -18.5 45.5t-40.5 21.5v70q21 4 40 20t19 46v149q0 74 43 114t134 40h15v-96h-12q-37 -1 -53 -18t-16 -56v-134q0 -65 -69 -100q69 -35 69 -100v-134q0 -39 16 -56t53 -19h12v-95h-15q-177 0 -177 153z" />
    <glyph glyph-name="bar" unicode="|" horiz-adv-x="457" 
d="M185 666h90v-765h-90v765z" />
    <glyph glyph-name="braceright" unicode="}" horiz-adv-x="376" 
d="M63 -15h10q38 2 53.5 18.5t15.5 56.5v134q0 64 70 100q-70 36 -70 100v134q0 40 -15.5 56.5t-53.5 17.5h-10v96h13q91 0 134 -40t43 -114v-149q0 -30 19 -46t40 -20v-70q-22 -6 -40.5 -21.5t-18.5 -45.5v-149q0 -153 -177 -153h-13v95z" />
    <glyph glyph-name="asciitilde" unicode="~" horiz-adv-x="507" 
d="M98 299q31 38 70 38q19 0 37 -7t48 -21q26 -14 46 -21.5t40 -7.5q39 0 70 38v-69q-31 -39 -70 -39q-19 0 -37 7t-48 21q-26 14 -46 21.5t-40 7.5q-39 0 -70 -38v70z" />
    <glyph glyph-name="uni00A0" unicode="&#xa0;" horiz-adv-x="284" 
 />
    <glyph glyph-name="exclamdown" unicode="&#xa1;" horiz-adv-x="383" 
d="M146 499h102v-94h-102v94zM158 324h79l11 -492h-102z" />
    <glyph glyph-name="cent" unicode="&#xa2;" horiz-adv-x="496" 
d="M449 93q-60 -26 -117 -30v-63h-90v65q-86 13 -140 74.5t-54 179.5q0 122 53.5 185t140.5 76v72h90v-70q61 -6 116 -28v-94q-76 32 -139 32q-79 0 -118 -39.5t-39 -125.5q0 -90 38 -131.5t122 -41.5q68 0 137 33v-94z" />
    <glyph glyph-name="sterling" unicode="&#xa3;" horiz-adv-x="557" 
d="M265 552.5q-30 -28.5 -30 -71.5v-118h181v-85h-181v-176q16 -4 24 -5q44 -10 75.5 -15.5t61.5 -5.5q56 0 106 22v-94q-46 -25 -101 -25q-26 0 -52.5 4.5t-66.5 13.5q-39 9 -67 13.5t-55 4.5q-60 0 -110 -30v96q20 11 38.5 15.5t45.5 7.5v174h-84v85h84v125
q0 49 21.5 91.5t69 69.5t121.5 27q76 0 156 -43v-99q-65 47 -139 47q-68 0 -98 -28.5z" />
    <glyph glyph-name="currency" unicode="&#xa4;" horiz-adv-x="493" 
d="M401 238l47 -48l-54 -53l-48 47q-44 -28 -98 -28t-99 29l-50 -48l-53 53l48 50q-29 45 -29 99q0 55 29 98l-48 49l53 53l48 -47q46 30 101 30q54 0 99 -29l47 46l54 -53l-47 -47q30 -46 30 -100q0 -55 -30 -101zM316.5 264q27.5 29 27.5 75t-27.5 75.5t-69.5 29.5
t-69.5 -29.5t-27.5 -75.5t27.5 -75t69.5 -29t69.5 29z" />
    <glyph glyph-name="yen" unicode="&#xa5;" horiz-adv-x="640" 
d="M272 128h-150v72h150v88h-150v72h108l-212 307h124l181 -277l180 277h125l-212 -307h108v-72h-150v-88h150v-72h-150v-128h-102v128z" />
    <glyph glyph-name="brokenbar" unicode="&#xa6;" horiz-adv-x="457" 
d="M185 666h90v-318h-90v318zM275 -99h-90v317h90v-317z" />
    <glyph glyph-name="section" unicode="&#xa7;" horiz-adv-x="563" 
d="M64 36v93q69 -51 170 -51q45 0 83.5 12t38.5 46q0 24 -28.5 42.5t-104.5 37.5q-80 21 -122 50t-42 86q0 45 31.5 70.5t73.5 34.5q-19 9 -34 29.5t-15 46.5q0 64 53.5 103.5t151.5 39.5q79 0 155 -36v-86q-69 37 -143 37q-45 0 -82 -12t-37 -44q0 -19 23 -36t92 -34
q83 -21 132 -54.5t49 -100.5q0 -38 -28 -62t-66 -34q18 -13 28.5 -35t10.5 -49q0 -65 -55.5 -101.5t-154.5 -36.5q-97 0 -180 44zM411 308q0 23 -23.5 40.5t-89.5 33.5q-53 13 -77 22q-64 -9 -64 -51q0 -14 18.5 -27t82.5 -28q59 -15 102 -35q51 11 51 45z" />
    <glyph glyph-name="dieresis" unicode="&#xa8;" horiz-adv-x="404" 
d="M70 650h101v-88h-101v88zM234 650h100v-88h-100v88z" />
    <glyph glyph-name="copyright" unicode="&#xa9;" horiz-adv-x="778" 
d="M219 38q-79 46 -125 124.5t-46 170.5q0 93 46 171.5t124.5 124.5t171.5 46t171.5 -46t124.5 -124.5t46 -171.5q0 -92 -46 -170.5t-124.5 -124.5t-171.5 -46q-92 0 -171 46zM539.5 75.5q68.5 40.5 108.5 109t40 148.5q0 81 -40 149.5t-108.5 109t-149.5 40.5t-149.5 -40.5
t-108.5 -109t-40 -149.5q0 -80 40 -148.5t108.5 -109t149.5 -40.5t149.5 40.5zM263.5 182q-47.5 48 -47.5 151t47.5 151.5t133.5 48.5q61 0 121 -23v-55q-54 24 -116 24q-64 0 -95 -34t-31 -112q0 -77 31 -111.5t95 -34.5q60 0 116 25v-54q-58 -24 -121 -24q-86 0 -133.5 48
z" />
    <glyph glyph-name="ordfeminine" unicode="&#xaa;" horiz-adv-x="398" 
d="M109 406.5q-36 20.5 -36 70.5q0 47 28 68t82 21q26 0 46.5 -4t24.5 -7q0 70 -66 70q-43 0 -88 -17v49q46 18 91 18q123 0 123 -117v-83q0 -89 -121 -89q-48 0 -84 20.5zM254 474v42q-6 2 -21.5 5.5t-32.5 3.5q-27 0 -47 -10t-20 -37q0 -25 17.5 -35.5t43.5 -10.5
q60 0 60 42z" />
    <glyph glyph-name="guillemotleft" unicode="&#xab;" horiz-adv-x="585" 
d="M32 255l169 190h117l-179 -190l179 -191h-117zM238 255l169 190h117l-179 -190l179 -191h-117z" />
    <glyph glyph-name="logicalnot" unicode="&#xac;" horiz-adv-x="626" 
d="M452 249h-355v78h432v-173h-77v95z" />
    <glyph glyph-name="uni00AD" unicode="&#xad;" horiz-adv-x="600" 
d="M79 344h305v-85h-305v85z" />
    <glyph glyph-name="registered" unicode="&#xae;" horiz-adv-x="778" 
d="M219 38q-79 46 -125 124.5t-46 170.5q0 93 46 171.5t124.5 124.5t171.5 46t171.5 -46t124.5 -124.5t46 -171.5q0 -92 -46 -170.5t-124.5 -124.5t-171.5 -46q-92 0 -171 46zM539.5 75.5q68.5 40.5 108.5 109t40 148.5q0 81 -40 150t-108.5 109t-149.5 40t-149.5 -40.5
t-108.5 -109t-40 -149.5q0 -80 40 -148.5t108.5 -109t149.5 -40.5t149.5 40.5zM259 528h146q66 0 103.5 -30t37.5 -87q0 -53 -27.5 -79.5t-59.5 -34.5l103 -159h-69l-92 150h-82v-150h-60v390zM406 339q45 0 62 18.5t17 49.5q0 69 -79 69h-87v-137h87z" />
    <glyph glyph-name="macron" unicode="&#xaf;" horiz-adv-x="400" 
d="M75 637h252v-71h-252v71z" />
    <glyph glyph-name="degree" unicode="&#xb0;" horiz-adv-x="387" 
d="M110 475.5q-28 28.5 -28 82.5t28 82.5t81 28.5t81 -28.5t28 -82.5t-28 -82.5t-81 -28.5t-81 28.5zM240.5 506q15.5 16 15.5 52t-15.5 52t-49.5 16t-49.5 -16t-15.5 -52t15.5 -52t49.5 -16t49.5 16z" />
    <glyph glyph-name="plusminus" unicode="&#xb1;" horiz-adv-x="585" 
d="M255 294h-141v75h141v141h76v-141h140v-75h-140v-142h-76v142zM114 98h357v-73h-357v73z" />
    <glyph glyph-name="two.superior" unicode="&#xb2;" horiz-adv-x="331" 
d="M288 538v-75h-238v45q59 43 103.5 94.5t44.5 100.5q0 23 -17 37.5t-43 14.5q-40 0 -85 -32v73q49 30 102 30q66 0 97.5 -30.5t31.5 -73.5q0 -47 -34 -96t-85 -88h123z" />
    <glyph glyph-name="three.superior" unicode="&#xb3;" horiz-adv-x="327" 
d="M49 483v70q23 -13 44 -20.5t45 -7.5q28 0 46.5 13t18.5 38q0 22 -18.5 34.5t-47.5 12.5h-39v59h40q20 0 33.5 10.5t13.5 32.5q0 14 -15 23.5t-38 9.5q-38 0 -74 -19v66q40 21 86 21q58 0 92.5 -27.5t34.5 -69.5q0 -22 -9.5 -38t-21.5 -24.5t-18 -9.5q28 -14 47 -34
t19 -59q0 -47 -38 -76.5t-101 -29.5q-46 0 -100 25z" />
    <glyph glyph-name="acute" unicode="&#xb4;" horiz-adv-x="247" 
d="M113 677h105l-95 -118h-62z" />
    <glyph glyph-name="uni00B5" unicode="&#xb5;" horiz-adv-x="620" 
d="M99 499h102v-323q0 -41 23.5 -67.5t94.5 -26.5q55 0 107 15v402h102v-454q-31 -16 -90 -34.5t-131 -18.5q-49 0 -76.5 14.5t-29.5 15.5v-232h-102v709z" />
    <glyph glyph-name="paragraph" unicode="&#xb6;" horiz-adv-x="470" 
d="M316 234h-35q-118 0 -180.5 55.5t-62.5 161.5q0 104 62.5 160t180.5 56h121v-667h-86v234z" />
    <glyph glyph-name="periodcentered" unicode="&#xb7;" horiz-adv-x="326" 
d="M113 321h98v-97h-98v97z" />
    <glyph glyph-name="cedilla" unicode="&#xb8;" horiz-adv-x="263" 
d="M137 -5h74l-58 -121h-101z" />
    <glyph glyph-name="one.superior" unicode="&#xb9;" horiz-adv-x="239" 
d="M173 822v-359h-84v258l-47 -29v86l69 44h62z" />
    <glyph glyph-name="ordmasculine" unicode="&#xba;" horiz-adv-x="419" 
d="M112.5 422q-37.5 33 -37.5 110t37 110.5t95 33.5q57 0 94 -33t37 -111q0 -77 -37 -110t-94 -33t-94.5 33zM263.5 459q17.5 23 17.5 73q0 51 -17.5 74t-56.5 23t-57 -23t-18 -74q0 -50 18 -73t57 -23t56.5 23z" />
    <glyph glyph-name="guillemotright" unicode="&#xbb;" horiz-adv-x="588" 
d="M241 255l-178 190h116l170 -190l-170 -191h-116zM447 255l-179 190h117l170 -190l-170 -191h-117z" />
    <glyph glyph-name="onequarter" unicode="&#xbc;" horiz-adv-x="737" 
d="M173 673v-359h-84v258l-47 -29v86l69 44h62zM474 685h85l-407 -707h-85zM687 153v-66h-49v-86h-81v86h-148v67l167 206h62v-207h49zM557 153v91l-74 -91h74z" />
    <glyph glyph-name="onehalf" unicode="&#xbd;" horiz-adv-x="707" 
d="M173 673v-359h-84v258l-47 -29v86l69 44h62zM469 685h85l-407 -707h-85zM657 76v-75h-238v45q59 43 103.5 94.5t44.5 100.5q0 23 -17 37.5t-43 14.5q-40 0 -85 -32v73q49 30 102 30q66 0 97.5 -30.5t31.5 -73.5q0 -47 -34 -96t-85 -88h123z" />
    <glyph glyph-name="threequarters" unicode="&#xbe;" horiz-adv-x="765" 
d="M49 339v70q23 -13 44 -20.5t45 -7.5q28 0 46.5 13t18.5 38q0 22 -18.5 34.5t-47.5 12.5h-39v59h40q20 0 33.5 10.5t13.5 32.5q0 14 -15 23.5t-38 9.5q-38 0 -74 -19v66q40 21 86 21q58 0 92.5 -27.5t34.5 -69.5q0 -22 -9.5 -38t-21.5 -24.5t-18 -9.5q28 -14 47 -34
t19 -59q0 -47 -38 -76.5t-101 -29.5q-46 0 -100 25zM540 685h85l-407 -707h-85zM715 153v-66h-49v-86h-81v86h-148v67l167 206h62v-207h49zM585 153v91l-74 -91h74z" />
    <glyph glyph-name="questiondown" unicode="&#xbf;" horiz-adv-x="496" 
d="M218 499h103v-94h-103v94zM179.5 -157.5q-45.5 18.5 -75.5 60.5t-30 109q0 48 18.5 76t55.5 60q25 22 40 39t25.5 42.5t10.5 60.5v35h91v-39q0 -49 -13 -83.5t-32 -55.5t-47 -45q-30 -26 -43.5 -44.5t-13.5 -45.5q0 -51 31.5 -75.5t88.5 -24.5q40 0 77 13.5t62 32.5v-93
q-16 -12 -57.5 -26.5t-92.5 -14.5q-50 0 -95.5 18.5z" />
    <glyph glyph-name="Agrave" unicode="&#xc0;" horiz-adv-x="664" 
d="M465 181h-273l-65 -181h-110l260 667h117l253 -667h-116zM432 271l-104 286l-103 -286h207zM218 833h99l52 -114h-62z" />
    <glyph glyph-name="Aacute" unicode="&#xc1;" horiz-adv-x="664" 
d="M465 181h-273l-65 -181h-110l260 667h117l253 -667h-116zM432 271l-104 286l-103 -286h207zM355 841h109l-98 -114h-59z" />
    <glyph glyph-name="Acircumflex" unicode="&#xc2;" horiz-adv-x="664" 
d="M465 181h-273l-65 -181h-110l260 667h117l253 -667h-116zM432 271l-104 286l-103 -286h207zM290 837h87l83 -121h-69l-58 65l-58 -65h-69z" />
    <glyph glyph-name="Atilde" unicode="&#xc3;" horiz-adv-x="664" 
d="M465 181h-273l-65 -181h-110l260 667h117l253 -667h-116zM432 271l-104 286l-103 -286h207zM180 723q-2 16 -2 24q0 44 27.5 72.5t64.5 28.5q24 0 43.5 -9.5t43.5 -27.5q19 -14 30.5 -20.5t24.5 -6.5q14 0 22 10t8 29q0 9 -1 14h60q1 -6 1 -17q0 -45 -27.5 -73.5
t-69.5 -28.5q-27 0 -48 10.5t-44 28.5q-17 13 -26.5 18.5t-19.5 5.5q-14 0 -23 -11.5t-9 -31.5q0 -10 1 -15h-56z" />
    <glyph glyph-name="Adieresis" unicode="&#xc4;" horiz-adv-x="664" 
d="M465 181h-273l-65 -181h-110l260 667h117l253 -667h-116zM432 271l-104 286l-103 -286h207zM199 805h101v-88h-101v88zM363 805h100v-88h-100v88z" />
    <glyph glyph-name="Aring" unicode="&#xc5;" horiz-adv-x="664" 
d="M465 181h-273l-65 -181h-110l257 660q-51 19 -51 84q0 47 26.5 70t82.5 23q109 0 109 -93q0 -59 -45 -82l251 -662h-116zM291 777.5q-11 -9.5 -11 -33.5t11 -33.5t41 -9.5q29 0 40 9.5t11 33.5t-11 33.5t-40 9.5q-30 0 -41 -9.5zM432 271l-104 286l-103 -286h207z" />
    <glyph glyph-name="AE" unicode="&#xc6;" horiz-adv-x="988" 
d="M602 574v-192h275v-94h-275v-194h315v-94h-426v182h-228l-121 -182h-125l460 667h440v-93h-315zM491 274v251l-167 -251h167z" />
    <glyph glyph-name="Ccedilla" unicode="&#xc7;" horiz-adv-x="625" 
d="M214.5 526q-52.5 -60 -52.5 -193t53 -191.5t167 -58.5q98 0 190 54v-99q-45 -22 -97 -34.5t-103 -13.5l-50 -105h-101l77 109q-250 35 -250 340q0 344 317 344q103 0 207 -49v-99q-96 56 -193 56q-112 0 -164.5 -60z" />
    <glyph glyph-name="Egrave" unicode="&#xc8;" horiz-adv-x="586" 
d="M79 667h437v-93h-326v-193h284v-94h-285v-194h327v-93h-437v667zM191 833h99l52 -114h-62z" />
    <glyph glyph-name="Eacute" unicode="&#xc9;" horiz-adv-x="586" 
d="M79 667h437v-93h-326v-193h284v-94h-285v-194h327v-93h-437v667zM328 841h109l-98 -114h-59z" />
    <glyph glyph-name="Ecircumflex" unicode="&#xca;" horiz-adv-x="586" 
d="M79 667h437v-93h-326v-193h284v-94h-285v-194h327v-93h-437v667zM263 837h87l83 -121h-69l-58 65l-58 -65h-69z" />
    <glyph glyph-name="Edieresis" unicode="&#xcb;" horiz-adv-x="586" 
d="M79 667h437v-93h-326v-193h284v-94h-285v-194h327v-93h-437v667zM172 805h101v-88h-101v88zM336 805h100v-88h-100v88z" />
    <glyph glyph-name="Igrave" unicode="&#xcc;" horiz-adv-x="269" 
d="M79 667h111v-667h-111v667zM22 833h99l52 -114h-62z" />
    <glyph glyph-name="Iacute" unicode="&#xcd;" horiz-adv-x="269" 
d="M79 667h111v-667h-111v667zM159 841h109l-98 -114h-59z" />
    <glyph glyph-name="Icircumflex" unicode="&#xce;" horiz-adv-x="269" 
d="M79 667h111v-667h-111v667zM94 837h87l83 -121h-69l-58 65l-58 -65h-69z" />
    <glyph glyph-name="Idieresis" unicode="&#xcf;" horiz-adv-x="269" 
d="M79 667h111v-667h-111v667zM3 805h101v-88h-101v88zM167 805h100v-88h-100v88z" />
    <glyph glyph-name="Eth" unicode="&#xd0;" horiz-adv-x="686" 
d="M633 334q0 -334 -320 -334h-234v299h-72v70h72v298h234q320 0 320 -333zM467 151q53 58 53 183t-53 183t-165 58h-113v-206h86v-70h-86v-206h113q112 0 165 58z" />
    <glyph glyph-name="Ntilde" unicode="&#xd1;" horiz-adv-x="723" 
d="M644 667v-667h-99l-361 496v-496h-105v667h106l354 -490v490h105zM209 723q-2 16 -2 24q0 44 27.5 72.5t64.5 28.5q24 0 43.5 -9.5t43.5 -27.5q19 -14 30.5 -20.5t24.5 -6.5q14 0 22 10t8 29q0 9 -1 14h60q1 -6 1 -17q0 -45 -27.5 -73.5t-69.5 -28.5q-27 0 -48 10.5
t-44 28.5q-17 13 -26.5 18.5t-19.5 5.5q-14 0 -23 -11.5t-9 -31.5q0 -10 1 -15h-56z" />
    <glyph glyph-name="Ograve" unicode="&#xd2;" horiz-adv-x="727" 
d="M133 75q-80 87 -80 258q0 170 79 257.5t231 87.5q151 0 231 -86.5t80 -258.5q0 -170 -79.5 -257.5t-231.5 -87.5q-150 0 -230 87zM512.5 143.5q47.5 59.5 47.5 190.5q0 130 -48 189t-149 59t-149 -59t-48 -190t48 -190t149 -59q102 0 149.5 59.5zM254 842h99l52 -114h-62
z" />
    <glyph glyph-name="Oacute" unicode="&#xd3;" horiz-adv-x="727" 
d="M133 75q-80 87 -80 258q0 170 79 257.5t231 87.5q151 0 231 -86.5t80 -258.5q0 -170 -79.5 -257.5t-231.5 -87.5q-150 0 -230 87zM512.5 143.5q47.5 59.5 47.5 190.5q0 130 -48 189t-149 59t-149 -59t-48 -190t48 -190t149 -59q102 0 149.5 59.5zM391 850h109l-98 -114
h-59z" />
    <glyph glyph-name="Ocircumflex" unicode="&#xd4;" horiz-adv-x="727" 
d="M133 75q-80 87 -80 258q0 170 79 257.5t231 87.5q151 0 231 -86.5t80 -258.5q0 -170 -79.5 -257.5t-231.5 -87.5q-150 0 -230 87zM512.5 143.5q47.5 59.5 47.5 190.5q0 130 -48 189t-149 59t-149 -59t-48 -190t48 -190t149 -59q102 0 149.5 59.5zM326 846h87l83 -121h-69
l-58 65l-58 -65h-69z" />
    <glyph glyph-name="Otilde" unicode="&#xd5;" horiz-adv-x="727" 
d="M133 75q-80 87 -80 258q0 170 79 257.5t231 87.5q151 0 231 -86.5t80 -258.5q0 -170 -79.5 -257.5t-231.5 -87.5q-150 0 -230 87zM512.5 143.5q47.5 59.5 47.5 190.5q0 130 -48 189t-149 59t-149 -59t-48 -190t48 -190t149 -59q102 0 149.5 59.5zM216 732q-2 16 -2 24
q0 44 27.5 72.5t64.5 28.5q24 0 43.5 -9.5t43.5 -27.5q19 -14 30.5 -20.5t24.5 -6.5q14 0 22 10t8 29q0 9 -1 14h60q1 -6 1 -17q0 -45 -27.5 -73.5t-69.5 -28.5q-27 0 -48 10.5t-44 28.5q-17 13 -26.5 18.5t-19.5 5.5q-14 0 -23 -11.5t-9 -31.5q0 -10 1 -15h-56z" />
    <glyph glyph-name="Odieresis" unicode="&#xd6;" horiz-adv-x="727" 
d="M133 75q-80 87 -80 258q0 170 79 257.5t231 87.5q151 0 231 -86.5t80 -258.5q0 -170 -79.5 -257.5t-231.5 -87.5q-150 0 -230 87zM512.5 143.5q47.5 59.5 47.5 190.5q0 130 -48 189t-149 59t-149 -59t-48 -190t48 -190t149 -59q102 0 149.5 59.5zM235 814h101v-88h-101
v88zM399 814h100v-88h-100v88z" />
    <glyph glyph-name="multiply" unicode="&#xd7;" horiz-adv-x="497" 
d="M211 256l-135 179h78l96 -127l97 127h78l-135 -179l135 -179h-78l-97 127l-96 -127h-78z" />
    <glyph glyph-name="Oslash" unicode="&#xd8;" horiz-adv-x="727" 
d="M613 567q61 -85 61 -234q0 -170 -79.5 -257.5t-231.5 -87.5q-123 0 -198 57l-39 -45h-83l77 90q-67 87 -67 243q0 170 79 257.5t231 87.5q130 0 207 -64l45 53h84zM194 176l308 359q-48 47 -139 47q-101 0 -149 -59t-48 -190q0 -100 28 -157zM538 479l-305 -355
q46 -40 130 -40q102 0 149.5 59.5t47.5 190.5q0 91 -22 145z" />
    <glyph glyph-name="Ugrave" unicode="&#xd9;" horiz-adv-x="706" 
d="M151 55q-72 70 -72 207v405h113v-404q0 -94 41 -139.5t123 -45.5q165 0 165 185v404h106v-405q0 -135 -71 -206t-196 -71q-137 0 -209 70zM238 836h99l52 -114h-62z" />
    <glyph glyph-name="Uacute" unicode="&#xda;" horiz-adv-x="706" 
d="M151 55q-72 70 -72 207v405h113v-404q0 -94 41 -139.5t123 -45.5q165 0 165 185v404h106v-405q0 -135 -71 -206t-196 -71q-137 0 -209 70zM375 844h109l-98 -114h-59z" />
    <glyph glyph-name="Ucircumflex" unicode="&#xdb;" horiz-adv-x="706" 
d="M151 55q-72 70 -72 207v405h113v-404q0 -94 41 -139.5t123 -45.5q165 0 165 185v404h106v-405q0 -135 -71 -206t-196 -71q-137 0 -209 70zM310 840h87l83 -121h-69l-58 65l-58 -65h-69z" />
    <glyph glyph-name="Udieresis" unicode="&#xdc;" horiz-adv-x="706" 
d="M151 55q-72 70 -72 207v405h113v-404q0 -94 41 -139.5t123 -45.5q165 0 165 185v404h106v-405q0 -135 -71 -206t-196 -71q-137 0 -209 70zM219 808h101v-88h-101v88zM383 808h100v-88h-100v88z" />
    <glyph glyph-name="Yacute" unicode="&#xdd;" horiz-adv-x="638" 
d="M377 298v-298h-110v299l-251 368h135l178 -277l171 277h119zM355 841h109l-98 -114h-59z" />
    <glyph glyph-name="Thorn" unicode="&#xde;" horiz-adv-x="595" 
d="M86 667h102v-100h117q114 0 175.5 -56t61.5 -159t-61.5 -159t-175.5 -56h-117v-137h-102v667zM293 228q86 0 117 35t31 89t-31 89t-117 35h-105v-248h105z" />
    <glyph glyph-name="germandbls" unicode="&#xdf;" horiz-adv-x="606" 
d="M74 429q0 114 56.5 185t166.5 71q103 0 167 -43t64 -116q0 -59 -32 -98t-72 -52q31 -10 62 -34.5t52 -66t21 -96.5q0 -53 -22.5 -97t-68 -70t-111.5 -26q-41 0 -97 14v94q48 -22 89 -22q49 0 76 29t27 83q0 41 -21 71t-54 45t-70 16v87q57 0 85 27t28 75q0 45 -33 68
t-85 23q-62 0 -92.5 -42t-30.5 -120v-434h-105v429z" />
    <glyph glyph-name="agrave" unicode="&#xe0;" horiz-adv-x="562" 
d="M430.5 473.5q57.5 -39.5 56.5 -127.5v-240q0 -68 -60 -94.5t-171 -26.5q-89 0 -147 37t-58 124q0 82 47.5 123t134.5 41q90 0 150 -36v48q0 102 -123 102q-44 0 -88 -13.5t-73 -37.5v98q28 18 81.5 30t110.5 12q82 0 139.5 -39.5zM357 76q26 9 26 36v97q-51 22 -112 22
q-57 0 -86.5 -20t-29.5 -60q0 -42 33.5 -63t79.5 -21q63 0 89 9zM164 686h104l53 -118h-62z" />
    <glyph glyph-name="aacute" unicode="&#xe1;" horiz-adv-x="562" 
d="M430.5 473.5q57.5 -39.5 56.5 -127.5v-240q0 -68 -60 -94.5t-171 -26.5q-89 0 -147 37t-58 124q0 82 47.5 123t134.5 41q90 0 150 -36v48q0 102 -123 102q-44 0 -88 -13.5t-73 -37.5v98q28 18 81.5 30t110.5 12q82 0 139.5 -39.5zM357 76q26 9 26 36v97q-51 22 -112 22
q-57 0 -86.5 -20t-29.5 -60q0 -42 33.5 -63t79.5 -21q63 0 89 9zM305 686h105l-95 -118h-62z" />
    <glyph glyph-name="acircumflex" unicode="&#xe2;" horiz-adv-x="562" 
d="M430.5 473.5q57.5 -39.5 56.5 -127.5v-240q0 -68 -60 -94.5t-171 -26.5q-89 0 -147 37t-58 124q0 82 47.5 123t134.5 41q90 0 150 -36v48q0 102 -123 102q-44 0 -88 -13.5t-73 -37.5v98q28 18 81.5 30t110.5 12q82 0 139.5 -39.5zM357 76q26 9 26 36v97q-51 22 -112 22
q-57 0 -86.5 -20t-29.5 -60q0 -42 33.5 -63t79.5 -21q63 0 89 9zM248 691h87l83 -121h-69l-58 65l-58 -65h-69z" />
    <glyph glyph-name="atilde" unicode="&#xe3;" horiz-adv-x="562" 
d="M430.5 473.5q57.5 -39.5 56.5 -127.5v-240q0 -68 -60 -94.5t-171 -26.5q-89 0 -147 37t-58 124q0 82 47.5 123t134.5 41q90 0 150 -36v48q0 102 -123 102q-44 0 -88 -13.5t-73 -37.5v98q28 18 81.5 30t110.5 12q82 0 139.5 -39.5zM357 76q26 9 26 36v97q-51 22 -112 22
q-57 0 -86.5 -20t-29.5 -60q0 -42 33.5 -63t79.5 -21q63 0 89 9zM131 553q-2 16 -2 24q0 44 27.5 72.5t64.5 28.5q24 0 43.5 -9.5t43.5 -27.5q19 -14 30.5 -20.5t24.5 -6.5q14 0 22 10t8 29q0 9 -1 14h60q1 -6 1 -17q0 -45 -27.5 -73.5t-69.5 -28.5q-27 0 -48 10.5t-44 28.5
q-17 13 -26.5 18.5t-19.5 5.5q-14 0 -23 -11.5t-9 -31.5q0 -10 1 -15h-56z" />
    <glyph glyph-name="adieresis" unicode="&#xe4;" horiz-adv-x="562" 
d="M430.5 473.5q57.5 -39.5 56.5 -127.5v-240q0 -68 -60 -94.5t-171 -26.5q-89 0 -147 37t-58 124q0 82 47.5 123t134.5 41q90 0 150 -36v48q0 102 -123 102q-44 0 -88 -13.5t-73 -37.5v98q28 18 81.5 30t110.5 12q82 0 139.5 -39.5zM357 76q26 9 26 36v97q-51 22 -112 22
q-57 0 -86.5 -20t-29.5 -60q0 -42 33.5 -63t79.5 -21q63 0 89 9zM159 659h101v-88h-101v88zM323 659h100v-88h-100v88z" />
    <glyph glyph-name="aring" unicode="&#xe5;" horiz-adv-x="562" 
d="M430.5 473.5q57.5 -39.5 56.5 -127.5v-240q0 -68 -60 -94.5t-171 -26.5q-89 0 -147 37t-58 124q0 82 47.5 123t134.5 41q90 0 150 -36v48q0 102 -123 102q-44 0 -88 -13.5t-73 -37.5v98q28 18 81.5 30t110.5 12q82 0 139.5 -39.5zM357 76q26 9 26 36v97q-51 22 -112 22
q-57 0 -86.5 -20t-29.5 -60q0 -42 33.5 -63t79.5 -21q63 0 89 9zM205.5 567q-26.5 23 -26.5 70t26.5 70t82.5 23q109 0 109 -93t-109 -93q-56 0 -82.5 23zM328 603.5q11 9.5 11 33.5t-11 33.5t-40 9.5q-30 0 -41 -9.5t-11 -33.5t11 -33.5t41 -9.5q29 0 40 9.5z" />
    <glyph glyph-name="ae" unicode="&#xe6;" horiz-adv-x="889" 
d="M788.5 437.5q54.5 -75.5 52.5 -210.5h-354q0 -76 39.5 -115t115.5 -39q47 0 88.5 12t72.5 32v-98q-74 -37 -179 -37q-56 0 -101.5 17t-76.5 49q-87 -66 -187 -66q-96 0 -152 38.5t-56 122.5t54 125.5t147 41.5q36 0 70 -8.5t61 -23.5v43q0 102 -123 102
q-43 0 -87.5 -13.5t-73.5 -36.5v98q28 18 81.5 30t110.5 12q49 0 91.5 -14.5t69.5 -45.5q59 60 164 60q118 0 172.5 -75.5zM529 399q-30 -28 -39 -94h244q-6 63 -35.5 92.5t-85.5 29.5q-54 0 -84 -28zM346.5 74.5q37.5 10.5 60.5 30.5q-21 43 -24 104q-55 22 -112 22
q-116 0 -116 -86q0 -40 33 -60.5t82 -20.5q39 0 76.5 10.5z" />
    <glyph glyph-name="ccedilla" unicode="&#xe7;" horiz-adv-x="496" 
d="M449 22q-56 -25 -121 -31l-56 -117h-101l83 118q-91 11 -148.5 72.5t-57.5 183.5q0 140 69.5 202.5t176.5 62.5q81 0 154 -30v-94q-76 32 -139 32q-79 0 -118 -39.5t-39 -125.5q0 -90 38 -131.5t122 -41.5q68 0 137 33v-94z" />
    <glyph glyph-name="egrave" unicode="&#xe8;" horiz-adv-x="553" 
d="M452.5 438.5q54.5 -75.5 53.5 -211.5h-352q5 -74 43.5 -112.5t109.5 -38.5q46 0 88 11.5t74 29.5v-98q-78 -34 -179 -34q-113 0 -177.5 68.5t-64.5 194.5q0 129 61 197.5t172 68.5q117 0 171.5 -75.5zM195 400q-30 -28 -39 -95h243q-7 64 -36 93.5t-85 29.5
q-53 0 -83 -28zM161 683h104l53 -118h-62z" />
    <glyph glyph-name="eacute" unicode="&#xe9;" horiz-adv-x="553" 
d="M452.5 438.5q54.5 -75.5 53.5 -211.5h-352q5 -74 43.5 -112.5t109.5 -38.5q46 0 88 11.5t74 29.5v-98q-78 -34 -179 -34q-113 0 -177.5 68.5t-64.5 194.5q0 129 61 197.5t172 68.5q117 0 171.5 -75.5zM195 400q-30 -28 -39 -95h243q-7 64 -36 93.5t-85 29.5
q-53 0 -83 -28zM302 683h105l-95 -118h-62z" />
    <glyph glyph-name="ecircumflex" unicode="&#xea;" horiz-adv-x="553" 
d="M452.5 438.5q54.5 -75.5 53.5 -211.5h-352q5 -74 43.5 -112.5t109.5 -38.5q46 0 88 11.5t74 29.5v-98q-78 -34 -179 -34q-113 0 -177.5 68.5t-64.5 194.5q0 129 61 197.5t172 68.5q117 0 171.5 -75.5zM195 400q-30 -28 -39 -95h243q-7 64 -36 93.5t-85 29.5
q-53 0 -83 -28zM245 688h87l83 -121h-69l-58 65l-58 -65h-69z" />
    <glyph glyph-name="edieresis" unicode="&#xeb;" horiz-adv-x="553" 
d="M452.5 438.5q54.5 -75.5 53.5 -211.5h-352q5 -74 43.5 -112.5t109.5 -38.5q46 0 88 11.5t74 29.5v-98q-78 -34 -179 -34q-113 0 -177.5 68.5t-64.5 194.5q0 129 61 197.5t172 68.5q117 0 171.5 -75.5zM195 400q-30 -28 -39 -95h243q-7 64 -36 93.5t-85 29.5
q-53 0 -83 -28zM156 656h101v-88h-101v88zM320 656h100v-88h-100v88z" />
    <glyph glyph-name="igrave" unicode="&#xec;" horiz-adv-x="297" 
d="M33 679h87l59 -115h-60zM98 499h102v-499h-102v499z" />
    <glyph glyph-name="iacute" unicode="&#xed;" horiz-adv-x="297" 
d="M178 677h86l-86 -115h-58zM98 499h102v-499h-102v499z" />
    <glyph glyph-name="icircumflex" unicode="&#xee;" horiz-adv-x="297" 
d="M127 682h43l93 -120h-70l-44 62l-45 -62h-69zM98 499h102v-499h-102v499z" />
    <glyph glyph-name="idieresis" unicode="&#xef;" horiz-adv-x="297" 
d="M26 650h91v-88h-91v88zM180 650h92v-88h-92v88zM98 499h102v-499h-102v499z" />
    <glyph glyph-name="eth" unicode="&#xf0;" horiz-adv-x="574" 
d="M523 282q0 -145 -59 -222.5t-175 -77.5q-121 0 -181 67.5t-60 199.5q0 129 56.5 196.5t161.5 67.5q62 0 106 -30q-27 46 -62 86l-128 -22l-14 68l81 14q-39 32 -77 59v4h142q25 -20 49 -44l108 18l14 -66l-70 -12q108 -143 108 -306zM360 89.5q29 18.5 45 66.5t17 133
q0 52 -12 97q-23 22 -54.5 34.5t-67.5 12.5q-136 0 -136 -184q0 -88 32.5 -133t103.5 -45q43 0 72 18.5z" />
    <glyph glyph-name="ntilde" unicode="&#xf1;" horiz-adv-x="586" 
d="M183.5 498.5q64.5 14.5 123.5 14.5q105 0 155 -44t50 -137v-332h-105v318q0 105 -119 105q-57 0 -109 -19v-404h-105v461q45 23 109.5 37.5zM137 550q-2 16 -2 24q0 44 27.5 72.5t64.5 28.5q24 0 43.5 -9.5t43.5 -27.5q19 -14 30.5 -20.5t24.5 -6.5q14 0 22 10t8 29
q0 9 -1 14h60q1 -6 1 -17q0 -45 -27.5 -73.5t-69.5 -28.5q-27 0 -48 10.5t-44 28.5q-17 13 -26.5 18.5t-19.5 5.5q-14 0 -23 -11.5t-9 -31.5q0 -10 1 -15h-56z" />
    <glyph glyph-name="ograve" unicode="&#xf2;" horiz-adv-x="578" 
d="M108.5 53q-60.5 68 -60.5 198q0 263 240 263q121 0 182 -67.5t61 -195.5t-63 -197t-179 -69q-120 0 -180.5 68zM426 251q0 88 -33 131.5t-105 43.5q-73 0 -104.5 -44.5t-31.5 -130.5t32.5 -131.5t103.5 -45.5q138 0 138 177zM167 686h104l53 -118h-62z" />
    <glyph glyph-name="oacute" unicode="&#xf3;" horiz-adv-x="578" 
d="M108.5 53q-60.5 68 -60.5 198q0 263 240 263q121 0 182 -67.5t61 -195.5t-63 -197t-179 -69q-120 0 -180.5 68zM426 251q0 88 -33 131.5t-105 43.5q-73 0 -104.5 -44.5t-31.5 -130.5t32.5 -131.5t103.5 -45.5q138 0 138 177zM308 686h105l-95 -118h-62z" />
    <glyph glyph-name="ocircumflex" unicode="&#xf4;" horiz-adv-x="578" 
d="M108.5 53q-60.5 68 -60.5 198q0 263 240 263q121 0 182 -67.5t61 -195.5t-63 -197t-179 -69q-120 0 -180.5 68zM426 251q0 88 -33 131.5t-105 43.5q-73 0 -104.5 -44.5t-31.5 -130.5t32.5 -131.5t103.5 -45.5q138 0 138 177zM251 691h87l83 -121h-69l-58 65l-58 -65h-69z
" />
    <glyph glyph-name="otilde" unicode="&#xf5;" horiz-adv-x="578" 
d="M108.5 53q-60.5 68 -60.5 198q0 263 240 263q121 0 182 -67.5t61 -195.5t-63 -197t-179 -69q-120 0 -180.5 68zM426 251q0 88 -33 131.5t-105 43.5q-73 0 -104.5 -44.5t-31.5 -130.5t32.5 -131.5t103.5 -45.5q138 0 138 177zM134 553q-2 16 -2 24q0 44 27.5 72.5
t64.5 28.5q24 0 43.5 -9.5t43.5 -27.5q19 -14 30.5 -20.5t24.5 -6.5q14 0 22 10t8 29q0 9 -1 14h60q1 -6 1 -17q0 -45 -27.5 -73.5t-69.5 -28.5q-27 0 -48 10.5t-44 28.5q-17 13 -26.5 18.5t-19.5 5.5q-14 0 -23 -11.5t-9 -31.5q0 -10 1 -15h-56z" />
    <glyph glyph-name="odieresis" unicode="&#xf6;" horiz-adv-x="578" 
d="M108.5 53q-60.5 68 -60.5 198q0 263 240 263q121 0 182 -67.5t61 -195.5t-63 -197t-179 -69q-120 0 -180.5 68zM426 251q0 88 -33 131.5t-105 43.5q-73 0 -104.5 -44.5t-31.5 -130.5t32.5 -131.5t103.5 -45.5q138 0 138 177zM162 659h101v-88h-101v88zM326 659h100v-88
h-100v88z" />
    <glyph glyph-name="divide" unicode="&#xf7;" horiz-adv-x="628" 
d="M268 457h93v-91h-93v91zM105 296h419v-76h-419v76zM268 150h93v-91h-93v91z" />
    <glyph glyph-name="oslash" unicode="&#xf8;" horiz-adv-x="586" 
d="M489 422q42 -66 42 -171q0 -128 -63 -197t-179 -69q-85 0 -140 35l-17 -20h-103l63 74q-44 67 -44 177q0 263 240 263q87 0 146 -37l18 22h103zM164 160l207 244q-33 22 -83 22q-73 0 -104.5 -44.5t-31.5 -130.5q0 -53 12 -91zM416 335l-205 -241q31 -20 77 -20
q138 0 138 177q0 51 -10 84z" />
    <glyph glyph-name="ugrave" unicode="&#xf9;" horiz-adv-x="588" 
d="M132.5 36.5q-58.5 51.5 -58.5 150.5v315h105v-300q0 -64 28.5 -94.5t88.5 -30.5t88.5 30.5t28.5 94.5v300h101v-315q0 -99 -57 -150.5t-161 -51.5q-105 0 -163.5 51.5zM173 683h104l53 -118h-62z" />
    <glyph glyph-name="uacute" unicode="&#xfa;" horiz-adv-x="588" 
d="M132.5 36.5q-58.5 51.5 -58.5 150.5v315h105v-300q0 -64 28.5 -94.5t88.5 -30.5t88.5 30.5t28.5 94.5v300h101v-315q0 -99 -57 -150.5t-161 -51.5q-105 0 -163.5 51.5zM314 683h105l-95 -118h-62z" />
    <glyph glyph-name="ucircumflex" unicode="&#xfb;" horiz-adv-x="588" 
d="M132.5 36.5q-58.5 51.5 -58.5 150.5v315h105v-300q0 -64 28.5 -94.5t88.5 -30.5t88.5 30.5t28.5 94.5v300h101v-315q0 -99 -57 -150.5t-161 -51.5q-105 0 -163.5 51.5zM257 688h87l83 -121h-69l-58 65l-58 -65h-69z" />
    <glyph glyph-name="udieresis" unicode="&#xfc;" horiz-adv-x="588" 
d="M132.5 36.5q-58.5 51.5 -58.5 150.5v315h105v-300q0 -64 28.5 -94.5t88.5 -30.5t88.5 30.5t28.5 94.5v300h101v-315q0 -99 -57 -150.5t-161 -51.5q-105 0 -163.5 51.5zM168 656h101v-88h-101v88zM332 656h100v-88h-100v88z" />
    <glyph glyph-name="yacute" unicode="&#xfd;" horiz-adv-x="563" 
d="M532 502l-207 -533q-64 -163 -173 -163q-39 0 -66 12v90q25 -10 50 -10q39 0 61.5 26t38.5 79l-205 499h119l137 -375l136 375h109zM302 677h105l-95 -118h-62z" />
    <glyph glyph-name="thorn" unicode="&#xfe;" horiz-adv-x="580" 
d="M467 443q66 -64 66 -207q0 -116 -61.5 -184.5t-170.5 -68.5q-26 0 -60.5 7t-62.5 20v-203h-104v885h104v-198q55 13 115 13q108 0 174 -64zM389.5 115q35.5 43 35.5 123q0 84 -29.5 131t-105.5 47q-42 0 -74.5 -9.5t-37.5 -26.5v-279q51 -29 107 -29q69 0 104.5 43z" />
    <glyph glyph-name="ydieresis" unicode="&#xff;" horiz-adv-x="563" 
d="M532 502l-207 -533q-64 -163 -173 -163q-39 0 -66 12v90q25 -10 50 -10q39 0 61.5 26t38.5 79l-205 499h119l137 -375l136 375h109zM156 650h101v-88h-101v88zM320 650h100v-88h-100v88z" />
    <glyph glyph-name="Amacron" unicode="&#x100;" horiz-adv-x="664" 
d="M465 181h-273l-65 -181h-110l260 667h117l253 -667h-116zM432 271l-104 286l-103 -286h207zM205 785h252v-71h-252v71z" />
    <glyph glyph-name="amacron" unicode="&#x101;" horiz-adv-x="562" 
d="M430.5 473.5q57.5 -39.5 56.5 -127.5v-240q0 -68 -60 -94.5t-171 -26.5q-89 0 -147 37t-58 124q0 82 47.5 123t134.5 41q90 0 150 -36v48q0 102 -123 102q-44 0 -88 -13.5t-73 -37.5v98q28 18 81.5 30t110.5 12q82 0 139.5 -39.5zM357 76q26 9 26 36v97q-51 22 -112 22
q-57 0 -86.5 -20t-29.5 -60q0 -42 33.5 -63t79.5 -21q63 0 89 9zM160 646h252v-71h-252v71z" />
    <glyph glyph-name="Abreve" unicode="&#x102;" horiz-adv-x="664" 
d="M465 181h-273l-65 -181h-110l260 667h117l253 -667h-116zM432 271l-104 286l-103 -286h207zM240 729q-36 32 -48 90h65q10 -27 29.5 -43.5t47.5 -16.5q53 0 76 60h65q-8 -57 -45.5 -89.5t-95.5 -32.5t-94 32z" />
    <glyph glyph-name="abreve" unicode="&#x103;" horiz-adv-x="562" 
d="M430.5 473.5q57.5 -39.5 56.5 -127.5v-240q0 -68 -60 -94.5t-171 -26.5q-89 0 -147 37t-58 124q0 82 47.5 123t134.5 41q90 0 150 -36v48q0 102 -123 102q-44 0 -88 -13.5t-73 -37.5v98q28 18 81.5 30t110.5 12q82 0 139.5 -39.5zM357 76q26 9 26 36v97q-51 22 -112 22
q-57 0 -86.5 -20t-29.5 -60q0 -42 33.5 -63t79.5 -21q63 0 89 9zM195 583q-36 32 -48 90h65q10 -27 29.5 -43.5t47.5 -16.5q53 0 76 60h65q-8 -57 -45.5 -89.5t-95.5 -32.5t-94 32z" />
    <glyph glyph-name="Aogonek" unicode="&#x104;" horiz-adv-x="664" 
d="M551 -82q0 -19 8.5 -26.5t25.5 -7.5q28 0 60 30v-73q-17 -9 -33.5 -14.5t-40.5 -5.5q-50 0 -77 22.5t-27 65.5q0 25 17.5 49t49.5 42h-3l-66 181h-273l-65 -181h-110l260 667h117l253 -667h-2q-94 -43 -94 -82zM432 271l-104 286l-103 -286h207z" />
    <glyph glyph-name="aogonek" unicode="&#x105;" horiz-adv-x="562" 
d="M430.5 473.5q57.5 -39.5 56.5 -127.5v-240q0 -75 -81 -103q-50 -32 -50 -59q0 -19 8.5 -26.5t25.5 -7.5q28 0 60 30v-73q-17 -9 -33.5 -14.5t-40.5 -5.5q-50 0 -77 22.5t-27 65.5q0 26 19 51q-12 -1 -35 -1q-89 0 -147 37t-58 124q0 82 47.5 123t134.5 41q90 0 150 -36
v48q0 102 -123 102q-44 0 -88 -13.5t-73 -37.5v98q28 18 81.5 30t110.5 12q82 0 139.5 -39.5zM188.5 88q33.5 -21 79.5 -21q63 0 89 9t26 36v97q-51 22 -112 22q-57 0 -86.5 -20t-29.5 -60q0 -42 33.5 -63z" />
    <glyph glyph-name="Cacute" unicode="&#x106;" horiz-adv-x="625" 
d="M48 334q0 344 317 344q103 0 207 -49v-99q-96 56 -193 56q-112 0 -164.5 -60t-52.5 -193t53 -191.5t167 -58.5q98 0 190 54v-99q-46 -23 -100.5 -35.5t-106.5 -12.5q-317 0 -317 344zM371 850h109l-98 -114h-59z" />
    <glyph glyph-name="cacute" unicode="&#x107;" horiz-adv-x="496" 
d="M118.5 51q-70.5 61 -70.5 197q0 140 69.5 202.5t176.5 62.5q81 0 154 -30v-94q-76 32 -139 32q-79 0 -118 -39.5t-39 -125.5q0 -90 38 -131.5t122 -41.5q68 0 137 33v-94q-72 -32 -154 -32q-106 0 -176.5 61zM293 683h105l-95 -118h-62z" />
    <glyph glyph-name="Ccircumflex" unicode="&#x108;" horiz-adv-x="625" 
d="M48 334q0 344 317 344q103 0 207 -49v-99q-96 56 -193 56q-112 0 -164.5 -60t-52.5 -193t53 -191.5t167 -58.5q98 0 190 54v-99q-46 -23 -100.5 -35.5t-106.5 -12.5q-317 0 -317 344zM306 846h87l83 -121h-69l-58 65l-58 -65h-69z" />
    <glyph glyph-name="ccircumflex" unicode="&#x109;" horiz-adv-x="496" 
d="M118.5 51q-70.5 61 -70.5 197q0 140 69.5 202.5t176.5 62.5q81 0 154 -30v-94q-76 32 -139 32q-79 0 -118 -39.5t-39 -125.5q0 -90 38 -131.5t122 -41.5q68 0 137 33v-94q-72 -32 -154 -32q-106 0 -176.5 61zM236 688h87l83 -121h-69l-58 65l-58 -65h-69z" />
    <glyph glyph-name="Cdotaccent" unicode="&#x10a;" horiz-adv-x="625" 
d="M48 334q0 344 317 344q103 0 207 -49v-99q-96 56 -193 56q-112 0 -164.5 -60t-52.5 -193t53 -191.5t167 -58.5q98 0 190 54v-99q-46 -23 -100.5 -35.5t-106.5 -12.5q-317 0 -317 344zM296 798h97v-88h-97v88z" />
    <glyph glyph-name="cdotaccent" unicode="&#x10b;" horiz-adv-x="496" 
d="M118.5 51q-70.5 61 -70.5 197q0 140 69.5 202.5t176.5 62.5q81 0 154 -30v-94q-76 32 -139 32q-79 0 -118 -39.5t-39 -125.5q0 -90 38 -131.5t122 -41.5q68 0 137 33v-94q-72 -32 -154 -32q-106 0 -176.5 61zM223 653h97v-88h-97v88z" />
    <glyph glyph-name="Ccaron" unicode="&#x10c;" horiz-adv-x="625" 
d="M48 334q0 344 317 344q103 0 207 -49v-99q-96 56 -193 56q-112 0 -164.5 -60t-52.5 -193t53 -191.5t167 -58.5q98 0 190 54v-99q-46 -23 -100.5 -35.5t-106.5 -12.5q-317 0 -317 344zM231 833h73l44 -66l44 66h73l-77 -121h-76z" />
    <glyph glyph-name="ccaron" unicode="&#x10d;" horiz-adv-x="496" 
d="M118.5 51q-70.5 61 -70.5 197q0 140 69.5 202.5t176.5 62.5q81 0 154 -30v-94q-76 32 -139 32q-79 0 -118 -39.5t-39 -125.5q0 -90 38 -131.5t122 -41.5q68 0 137 33v-94q-72 -32 -154 -32q-106 0 -176.5 61zM158 691h73l44 -66l44 66h73l-77 -121h-76z" />
    <glyph glyph-name="Dcaron" unicode="&#x10e;" horiz-adv-x="686" 
d="M79 667h234q320 0 320 -333q0 -334 -320 -334h-234v667zM302 93q112 0 165 58t53 183t-53 183t-165 58h-113v-482h113zM172 824h73l44 -66l44 66h73l-77 -121h-76z" />
    <glyph glyph-name="dcaron" unicode="&#x10f;" horiz-adv-x="639" 
d="M512 712v-606q0 -40 -33 -67.5t-83 -40.5t-103 -13q-107 0 -176 60.5t-69 211.5q0 121 59 189t175 68q27 0 62.5 -7t63.5 -21v226h104zM408 395q-24 14 -53.5 21.5t-57.5 7.5q-142 0 -142 -169q0 -84 32 -131.5t112 -47.5q46 0 77.5 11t31.5 29v279zM621 706h99l-87 -196
h-86z" />
    <glyph glyph-name="Dcroat" unicode="&#x110;" horiz-adv-x="686" 
d="M633 334q0 -334 -320 -334h-234v299h-72v70h72v298h234q320 0 320 -333zM467 151q53 58 53 183t-53 183t-165 58h-113v-206h86v-70h-86v-206h113q112 0 165 58z" />
    <glyph glyph-name="dcroat" unicode="&#x111;" horiz-adv-x="586" 
d="M575 568h-63v-462q0 -40 -33 -67.5t-83 -40.5t-103 -13q-107 0 -176 60.5t-69 211.5q0 121 59 189t175 68q27 0 62.5 -7t63.5 -21v82h-101v70h101v74h104v-74h63v-70zM408 395q-24 14 -53.5 21.5t-57.5 7.5q-142 0 -142 -169q0 -84 32 -131.5t112 -47.5q46 0 77.5 11
t31.5 29v279z" />
    <glyph glyph-name="Emacron" unicode="&#x112;" horiz-adv-x="586" 
d="M79 667h437v-93h-326v-193h284v-94h-285v-194h327v-93h-437v667zM178 785h252v-71h-252v71z" />
    <glyph glyph-name="emacron" unicode="&#x113;" horiz-adv-x="553" 
d="M452.5 438.5q54.5 -75.5 53.5 -211.5h-352q5 -74 43.5 -112.5t109.5 -38.5q46 0 88 11.5t74 29.5v-98q-78 -34 -179 -34q-113 0 -177.5 68.5t-64.5 194.5q0 129 61 197.5t172 68.5q117 0 171.5 -75.5zM195 400q-30 -28 -39 -95h243q-7 64 -36 93.5t-85 29.5
q-53 0 -83 -28zM157 643h252v-71h-252v71z" />
    <glyph glyph-name="Ebreve" unicode="&#x114;" horiz-adv-x="586" 
d="M79 667h437v-93h-326v-193h284v-94h-285v-194h327v-93h-437v667zM213 729q-36 32 -48 90h65q10 -27 29.5 -43.5t47.5 -16.5q53 0 76 60h65q-8 -57 -45.5 -89.5t-95.5 -32.5t-94 32z" />
    <glyph glyph-name="ebreve" unicode="&#x115;" horiz-adv-x="553" 
d="M452.5 438.5q54.5 -75.5 53.5 -211.5h-352q5 -74 43.5 -112.5t109.5 -38.5q46 0 88 11.5t74 29.5v-98q-78 -34 -179 -34q-113 0 -177.5 68.5t-64.5 194.5q0 129 61 197.5t172 68.5q117 0 171.5 -75.5zM195 400q-30 -28 -39 -95h243q-7 64 -36 93.5t-85 29.5
q-53 0 -83 -28zM192 580q-36 32 -48 90h65q10 -27 29.5 -43.5t47.5 -16.5q53 0 76 60h65q-8 -57 -45.5 -89.5t-95.5 -32.5t-94 32z" />
    <glyph glyph-name="Edotaccent" unicode="&#x116;" horiz-adv-x="586" 
d="M79 667h437v-93h-326v-193h284v-94h-285v-194h327v-93h-437v667zM253 789h97v-88h-97v88z" />
    <glyph glyph-name="edotaccent" unicode="&#x117;" horiz-adv-x="553" 
d="M452.5 438.5q54.5 -75.5 53.5 -211.5h-352q5 -74 43.5 -112.5t109.5 -38.5q46 0 88 11.5t74 29.5v-98q-78 -34 -179 -34q-113 0 -177.5 68.5t-64.5 194.5q0 129 61 197.5t172 68.5q117 0 171.5 -75.5zM195 400q-30 -28 -39 -95h243q-7 64 -36 93.5t-85 29.5
q-53 0 -83 -28zM232 653h97v-88h-97v88z" />
    <glyph glyph-name="Eogonek" unicode="&#x118;" horiz-adv-x="586" 
d="M190 574v-193h284v-94h-285v-194h327v-93h-5q-94 -43 -94 -82q0 -19 8.5 -26.5t25.5 -7.5q28 0 60 30v-73q-17 -9 -33.5 -14.5t-40.5 -5.5q-50 0 -77 22.5t-27 65.5q0 25 17.5 49t49.5 42h-321v667h437v-93h-326z" />
    <glyph glyph-name="eogonek" unicode="&#x119;" horiz-adv-x="553" 
d="M452.5 438.5q54.5 -75.5 53.5 -211.5h-352q5 -74 43.5 -112.5t109.5 -38.5q46 0 88 11.5t74 29.5v-98q-22 -9 -30 -11q-72 -38 -72 -72q0 -19 8.5 -26.5t25.5 -7.5q28 0 60 30v-73q-17 -9 -33.5 -14.5t-40.5 -5.5q-50 0 -77 22.5t-27 65.5q0 30 25 58h-18
q-113 0 -177.5 68.5t-64.5 194.5q0 129 61 197.5t172 68.5q117 0 171.5 -75.5zM195 400q-30 -28 -39 -95h243q-7 64 -36 93.5t-85 29.5q-53 0 -83 -28z" />
    <glyph glyph-name="Ecaron" unicode="&#x11a;" horiz-adv-x="586" 
d="M79 667h437v-93h-326v-193h284v-94h-285v-194h327v-93h-437v667zM188 824h73l44 -66l44 66h73l-77 -121h-76z" />
    <glyph glyph-name="ecaron" unicode="&#x11b;" horiz-adv-x="553" 
d="M452.5 438.5q54.5 -75.5 53.5 -211.5h-352q5 -74 43.5 -112.5t109.5 -38.5q46 0 88 11.5t74 29.5v-98q-78 -34 -179 -34q-113 0 -177.5 68.5t-64.5 194.5q0 129 61 197.5t172 68.5q117 0 171.5 -75.5zM195 400q-30 -28 -39 -95h243q-7 64 -36 93.5t-85 29.5
q-53 0 -83 -28zM167 691h73l44 -66l44 66h73l-77 -121h-76z" />
    <glyph glyph-name="Gcircumflex" unicode="&#x11c;" horiz-adv-x="695" 
d="M134 74q-81 86 -81 260q0 173 81 258.5t234 85.5q119 0 223 -46v-106q-61 29 -110 44.5t-99 15.5q-111 0 -164.5 -60t-53.5 -192t53.5 -192t161.5 -60q73 0 127 20v159h-140v94h250v-306q-117 -61 -247 -61q-154 0 -235 86zM324 843h87l83 -121h-69l-58 65l-58 -65h-69z
" />
    <glyph glyph-name="gcircumflex" unicode="&#x11d;" horiz-adv-x="579" 
d="M452.5 480q55.5 -33 55.5 -97v-398q0 -86 -56 -140t-178 -54q-89 0 -162 27v96q83 -31 154 -31q80 0 109 28.5t29 75.5v34q-29 -16 -63.5 -26t-67.5 -10q-110 2 -167.5 67t-57.5 185q0 156 72 216t192 60q85 0 140.5 -33zM189 116.5q34 -45.5 101 -45.5q65 0 114 29v263
q0 35 -26.5 48t-71.5 13q-85 0 -118 -49t-33 -135q0 -78 34 -123.5zM278 691h87l83 -121h-69l-58 65l-58 -65h-69z" />
    <glyph glyph-name="Gbreve" unicode="&#x11e;" horiz-adv-x="695" 
d="M134 74q-81 86 -81 260q0 173 81 258.5t234 85.5q119 0 223 -46v-106q-61 29 -110 44.5t-99 15.5q-111 0 -164.5 -60t-53.5 -192t53.5 -192t161.5 -60q73 0 127 20v159h-140v94h250v-306q-117 -61 -247 -61q-154 0 -235 86zM274 735q-36 32 -48 90h65q10 -27 29.5 -43.5
t47.5 -16.5q53 0 76 60h65q-8 -57 -45.5 -89.5t-95.5 -32.5t-94 32z" />
    <glyph glyph-name="gbreve" unicode="&#x11f;" horiz-adv-x="579" 
d="M452.5 480q55.5 -33 55.5 -97v-398q0 -86 -56 -140t-178 -54q-89 0 -162 27v96q83 -31 154 -31q80 0 109 28.5t29 75.5v34q-29 -16 -63.5 -26t-67.5 -10q-110 2 -167.5 67t-57.5 185q0 156 72 216t192 60q85 0 140.5 -33zM189 116.5q34 -45.5 101 -45.5q65 0 114 29v263
q0 35 -26.5 48t-71.5 13q-85 0 -118 -49t-33 -135q0 -78 34 -123.5zM225 583q-36 32 -48 90h65q10 -27 29.5 -43.5t47.5 -16.5q53 0 76 60h65q-8 -57 -45.5 -89.5t-95.5 -32.5t-94 32z" />
    <glyph glyph-name="Gdotaccent" unicode="&#x120;" horiz-adv-x="695" 
d="M134 74q-81 86 -81 260q0 173 81 258.5t234 85.5q119 0 223 -46v-106q-61 29 -110 44.5t-99 15.5q-111 0 -164.5 -60t-53.5 -192t53.5 -192t161.5 -60q73 0 127 20v159h-140v94h250v-306q-117 -61 -247 -61q-154 0 -235 86zM314 795h97v-88h-97v88z" />
    <glyph glyph-name="gdotaccent" unicode="&#x121;" horiz-adv-x="579" 
d="M452.5 480q55.5 -33 55.5 -97v-398q0 -86 -56 -140t-178 -54q-89 0 -162 27v96q83 -31 154 -31q80 0 109 28.5t29 75.5v34q-29 -16 -63.5 -26t-67.5 -10q-110 2 -167.5 67t-57.5 185q0 156 72 216t192 60q85 0 140.5 -33zM189 116.5q34 -45.5 101 -45.5q65 0 114 29v263
q0 35 -26.5 48t-71.5 13q-85 0 -118 -49t-33 -135q0 -78 34 -123.5zM265 656h97v-88h-97v88z" />
    <glyph glyph-name="Gcommaaccent" unicode="&#x122;" horiz-adv-x="695" 
d="M134 74q-81 86 -81 260q0 173 81 258.5t234 85.5q119 0 223 -46v-106q-61 29 -110 44.5t-99 15.5q-111 0 -164.5 -60t-53.5 -192t53.5 -192t161.5 -60q73 0 127 20v159h-140v94h250v-306q-117 -61 -247 -61q-154 0 -235 86zM264 -133q24 8 32 30t7 54h83
q1 -65 -34 -101.5t-88 -42.5v60z" />
    <glyph glyph-name="gcommaaccent" unicode="&#x123;" horiz-adv-x="579" 
d="M260 557q-1 65 34 101.5t88 42.5v-60q-24 -8 -32 -30t-7 -54h-83zM452.5 480q55.5 -33 55.5 -97v-398q0 -86 -56 -140t-178 -54q-89 0 -162 27v96q83 -31 154 -31q80 0 109 28.5t29 75.5v34q-29 -16 -63.5 -26t-67.5 -10q-110 2 -167.5 67t-57.5 185q0 156 72 216t192 60
q85 0 140.5 -33zM189 116.5q34 -45.5 101 -45.5q65 0 114 29v263q0 35 -26.5 48t-71.5 13q-85 0 -118 -49t-33 -135q0 -78 34 -123.5z" />
    <glyph glyph-name="Hcircumflex" unicode="&#x124;" horiz-adv-x="687" 
d="M79 667h110v-287h308v287h111v-667h-111v284h-308v-284h-110v667zM301 837h87l83 -121h-69l-58 65l-58 -65h-69z" />
    <glyph glyph-name="hcircumflex" unicode="&#x125;" horiz-adv-x="591" 
d="M517 311v-311h-105v298q0 61 -29 93t-86 32q-61 0 -118 -33l-1 -390h-104v714h105v-242q75 41 148 41q190 0 190 -202zM80 883h87l83 -121h-69l-58 65l-58 -65h-69z" />
    <glyph glyph-name="Hbar" unicode="&#x126;" horiz-adv-x="687" 
d="M655 482h-47v-482h-111v284h-308v-284h-110v482h-47v63h47v122h110v-122h308v122h111v-122h47v-63zM497 482h-308v-102h308v102z" />
    <glyph glyph-name="hbar" unicode="&#x127;" horiz-adv-x="591" 
d="M517 311v-311h-105v298q0 61 -29 93t-86 32q-61 0 -118 -33l-1 -390h-104v565h-80v70h80v79h105v-79h83v-70h-83v-93q75 41 148 41q190 0 190 -202z" />
    <glyph glyph-name="Itilde" unicode="&#x128;" horiz-adv-x="269" 
d="M79 667h111v-667h-111v667zM-16 723q-2 16 -2 24q0 44 27.5 72.5t64.5 28.5q24 0 43.5 -9.5t43.5 -27.5q19 -14 30.5 -20.5t24.5 -6.5q14 0 22 10t8 29q0 9 -1 14h60q1 -6 1 -17q0 -45 -27.5 -73.5t-69.5 -28.5q-27 0 -48 10.5t-44 28.5q-17 13 -26.5 18.5t-19.5 5.5
q-14 0 -23 -11.5t-9 -31.5q0 -10 1 -15h-56z" />
    <glyph glyph-name="itilde" unicode="&#x129;" horiz-adv-x="254" 
d="M74 499h105l1 -499h-106v499zM-30 544q-2 16 -2 24q0 44 27.5 72.5t64.5 28.5q24 0 43.5 -9.5t43.5 -27.5q19 -14 30.5 -20.5t24.5 -6.5q14 0 22 10t8 29q0 9 -1 14h60q1 -6 1 -17q0 -45 -27.5 -73.5t-69.5 -28.5q-27 0 -48 10.5t-44 28.5q-17 13 -26.5 18.5t-19.5 5.5
q-14 0 -23 -11.5t-9 -31.5q0 -10 1 -15h-56z" />
    <glyph glyph-name="Imacron" unicode="&#x12a;" horiz-adv-x="269" 
d="M79 667h111v-667h-111v667zM9 785h252v-71h-252v71z" />
    <glyph glyph-name="imacron" unicode="&#x12b;" horiz-adv-x="297" 
d="M32 634h233v-64h-233v64zM98 499h102v-499h-102v499z" />
    <glyph glyph-name="Ibreve" unicode="&#x12c;" horiz-adv-x="269" 
d="M79 667h111v-667h-111v667zM43 729q-36 32 -48 90h65q10 -27 29.5 -43.5t47.5 -16.5q53 0 76 60h65q-8 -57 -45.5 -89.5t-95.5 -32.5t-94 32z" />
    <glyph glyph-name="ibreve" unicode="&#x12d;" horiz-adv-x="254" 
d="M74 499h105l1 -499h-106v499zM33 574q-36 32 -48 90h65q10 -27 29.5 -43.5t47.5 -16.5q53 0 76 60h65q-8 -57 -45.5 -89.5t-95.5 -32.5t-94 32z" />
    <glyph glyph-name="Iogonek" unicode="&#x12e;" horiz-adv-x="269" 
d="M190 667v-667h-2q-94 -43 -94 -82q0 -19 8.5 -26.5t25.5 -7.5q28 0 60 30v-73q-17 -9 -33.5 -14.5t-40.5 -5.5q-50 0 -77 22.5t-27 65.5q0 24 19 49t50 44v665h111z" />
    <glyph glyph-name="iogonek" unicode="&#x12f;" horiz-adv-x="260" 
d="M186 677v-95h-112v95h112zM114.5 -40q-25.5 -21 -25.5 -41q0 -35 35 -35q29 0 59 30v-73q-17 -9 -33.5 -14.5t-39.5 -5.5q-51 0 -78 22.5t-27 65.5q0 25 19.5 50.5t52.5 44.5v495h105l1 -499q-43 -19 -68.5 -40z" />
    <glyph glyph-name="Idotaccent" unicode="&#x130;" horiz-adv-x="269" 
d="M79 667h111v-667h-111v667zM84 789h97v-88h-97v88z" />
    <glyph glyph-name="dotlessi" unicode="&#x131;" horiz-adv-x="254" 
d="M74 499h105l1 -499h-106v499z" />
    <glyph glyph-name="IJ" unicode="&#x132;" horiz-adv-x="733" 
d="M79 667h111v-667h-111v667zM310 26v106q64 -47 120 -47q58 0 85.5 28.5t27.5 93.5v460h111v-467q0 -115 -58.5 -162.5t-143.5 -47.5q-75 0 -142 36z" />
    <glyph glyph-name="ij" unicode="&#x133;" horiz-adv-x="543" 
d="M74 677h112v-95h-112v95zM77 499h105l1 -499h-106v499zM358 680h111v-95h-111v95zM269 -103q52 -1 72 20t20 67v518h105l1 -520q0 -175 -198 -175v90z" />
    <glyph glyph-name="Jcircumflex" unicode="&#x134;" horiz-adv-x="464" 
d="M41 26v106q64 -47 120 -47q58 0 85.5 28.5t27.5 93.5v460h111v-467q0 -115 -58.5 -162.5t-143.5 -47.5q-75 0 -142 36zM290 837h87l83 -121h-69l-58 65l-58 -65h-69z" />
    <glyph glyph-name="jcircumflex" unicode="&#x135;" horiz-adv-x="273" 
d="M128 682h44l92 -120h-70l-44 62l-44 -62h-70zM3 -109q53 1 74.5 21.5t21.5 67.5v519h102v-517q0 -175 -198 -175v84z" />
    <glyph glyph-name="Kcommaaccent" unicode="&#x136;" horiz-adv-x="642" 
d="M251 284l-61 -67v-217h-111v667h111v-324l268 324h140l-271 -299l293 -368h-145zM261 -133q24 8 32 30t7 54h83q1 -65 -34 -101.5t-88 -42.5v60z" />
    <glyph glyph-name="kcommaaccent" unicode="&#x137;" horiz-adv-x="578" 
d="M90 688h103v-397l188 208h134l-210 -226l236 -273h-129l-171 202l-48 -53v-149h-103v688zM222 -136q42 14 40 87h71q0 -64 -32.5 -101t-78.5 -43v57z" />
    <glyph glyph-name="kgreenlandic" unicode="&#x138;" horiz-adv-x="578" 
d="M90 499h103v-208l188 208h134l-210 -226l236 -273h-129l-171 202l-48 -53v-149h-103v499z" />
    <glyph glyph-name="Lacute" unicode="&#x139;" horiz-adv-x="537" 
d="M79 667h111v-573h319v-94h-430v667zM162 841h109l-98 -114h-59z" />
    <glyph glyph-name="lacute" unicode="&#x13a;" horiz-adv-x="252" 
d="M74 0v692h104v-692h-104zM148 856h109l-98 -114h-59z" />
    <glyph glyph-name="Lcommaaccent" unicode="&#x13b;" horiz-adv-x="537" 
d="M79 667h111v-573h319v-94h-430v667zM210 -133q24 8 32 30t7 54h83q1 -65 -34 -101.5t-88 -42.5v60z" />
    <glyph glyph-name="lcommaaccent" unicode="&#x13c;" horiz-adv-x="252" 
d="M74 0v692h104v-692h-104zM62 -133q24 8 32 30t7 54h83q1 -65 -34 -101.5t-88 -42.5v60z" />
    <glyph glyph-name="Lcaron" unicode="&#x13d;" horiz-adv-x="547" 
d="M79 667h111v-573h319v-94h-430v667zM369 586q24 8 32 30t7 54h83q1 -65 -34 -101.5t-88 -42.5v60z" />
    <glyph glyph-name="lcaron" unicode="&#x13e;" horiz-adv-x="314" 
d="M101 689h102v-689h-102v689zM243 603q23 7 31 30t8 56h71q0 -63 -32.5 -100t-77.5 -43v57z" />
    <glyph glyph-name="Ldot" unicode="&#x13f;" horiz-adv-x="537" 
d="M79 667h111v-573h319v-94h-430v667zM304 380h98v-97h-98v97z" />
    <glyph glyph-name="ldot" unicode="&#x140;" horiz-adv-x="371" 
d="M74 0v692h104v-692h-104zM258 381h98v-97h-98v97z" />
    <glyph glyph-name="Lslash" unicode="&#x141;" horiz-adv-x="538" 
d="M509 94v-94h-430v667h111v-280l16 14v-8l-16 -14v-285h319z" />
    <glyph glyph-name="lslash" unicode="&#x142;" horiz-adv-x="318" 
d="M105 302l-75 -47v82l75 46v306h103v-243l93 58v-81l-93 -58v-365h-103v302z" />
    <glyph glyph-name="Nacute" unicode="&#x143;" horiz-adv-x="723" 
d="M644 667v-667h-99l-361 496v-496h-105v667h106l354 -490v490h105zM384 841h109l-98 -114h-59z" />
    <glyph glyph-name="nacute" unicode="&#x144;" horiz-adv-x="586" 
d="M183.5 498.5q64.5 14.5 123.5 14.5q105 0 155 -44t50 -137v-332h-105v318q0 105 -119 105q-57 0 -109 -19v-404h-105v461q45 23 109.5 37.5zM311 683h105l-95 -118h-62z" />
    <glyph glyph-name="Ncommaaccent" unicode="&#x145;" horiz-adv-x="723" 
d="M644 667v-667h-99l-361 496v-496h-105v667h106l354 -490v490h105zM298 -133q24 8 32 30t7 54h83q1 -65 -34 -101.5t-88 -42.5v60z" />
    <glyph glyph-name="ncommaaccent" unicode="&#x146;" horiz-adv-x="586" 
d="M183.5 498.5q64.5 14.5 123.5 14.5q105 0 155 -44t50 -137v-332h-105v318q0 105 -119 105q-57 0 -109 -19v-404h-105v461q45 23 109.5 37.5zM230 -133q24 8 32 30t7 54h83q1 -65 -34 -101.5t-88 -42.5v60z" />
    <glyph glyph-name="Ncaron" unicode="&#x147;" horiz-adv-x="723" 
d="M644 667v-667h-99l-361 496v-496h-105v667h106l354 -490v490h105zM244 824h73l44 -66l44 66h73l-77 -121h-76z" />
    <glyph glyph-name="ncaron" unicode="&#x148;" horiz-adv-x="586" 
d="M183.5 498.5q64.5 14.5 123.5 14.5q105 0 155 -44t50 -137v-332h-105v318q0 105 -119 105q-57 0 -109 -19v-404h-105v461q45 23 109.5 37.5zM176 691h73l44 -66l44 66h73l-77 -121h-76z" />
    <glyph glyph-name="napostrophe" unicode="&#x149;" horiz-adv-x="601" 
d="M33 577q24 8 32 31t8 56h71q0 -64 -33 -101t-78 -43v57zM82 455q33 17 91.5 34.5t130.5 17.5q98 0 153 -50t55 -141v-316h-102v324q0 40 -23.5 67t-95.5 27q-49 0 -107 -16v-402h-102v455z" />
    <glyph glyph-name="Eng" unicode="&#x14a;" horiz-adv-x="747" 
d="M657 667v-673q-1 -90 -51.5 -131t-146.5 -41v84q52 0 74 19.5t22 63.5v6l-366 518v-513h-102v667h109l359 -513v513h102z" />
    <glyph glyph-name="eng" unicode="&#x14b;" horiz-adv-x="598" 
d="M74 445q31 21 93 41.5t128 20.5q99 0 154.5 -45.5t55.5 -134.5v-333q0 -90 -51.5 -131t-148.5 -41v87q53 0 74.5 21t21.5 68v310q0 46 -23.5 74.5t-91.5 28.5q-46 0 -108 -20v-391h-104v445z" />
    <glyph glyph-name="Omacron" unicode="&#x14c;" horiz-adv-x="727" 
d="M133 75q-80 87 -80 258q0 170 79 257.5t231 87.5q151 0 231 -86.5t80 -258.5q0 -170 -79.5 -257.5t-231.5 -87.5q-150 0 -230 87zM512.5 143.5q47.5 59.5 47.5 190.5q0 130 -48 189t-149 59t-149 -59t-48 -190t48 -190t149 -59q102 0 149.5 59.5zM241 794h252v-71h-252
v71z" />
    <glyph glyph-name="omacron" unicode="&#x14d;" horiz-adv-x="578" 
d="M108.5 53q-60.5 68 -60.5 198q0 263 240 263q121 0 182 -67.5t61 -195.5t-63 -197t-179 -69q-120 0 -180.5 68zM426 251q0 88 -33 131.5t-105 43.5q-73 0 -104.5 -44.5t-31.5 -130.5t32.5 -131.5t103.5 -45.5q138 0 138 177zM163 646h252v-71h-252v71z" />
    <glyph glyph-name="Obreve" unicode="&#x14e;" horiz-adv-x="727" 
d="M133 75q-80 87 -80 258q0 170 79 257.5t231 87.5q151 0 231 -86.5t80 -258.5q0 -170 -79.5 -257.5t-231.5 -87.5q-150 0 -230 87zM512.5 143.5q47.5 59.5 47.5 190.5q0 130 -48 189t-149 59t-149 -59t-48 -190t48 -190t149 -59q102 0 149.5 59.5zM276 738q-36 32 -48 90
h65q10 -27 29.5 -43.5t47.5 -16.5q53 0 76 60h65q-8 -57 -45.5 -89.5t-95.5 -32.5t-94 32z" />
    <glyph glyph-name="obreve" unicode="&#x14f;" horiz-adv-x="578" 
d="M108.5 53q-60.5 68 -60.5 198q0 263 240 263q121 0 182 -67.5t61 -195.5t-63 -197t-179 -69q-120 0 -180.5 68zM426 251q0 88 -33 131.5t-105 43.5q-73 0 -104.5 -44.5t-31.5 -130.5t32.5 -131.5t103.5 -45.5q138 0 138 177zM198 583q-36 32 -48 90h65q10 -27 29.5 -43.5
t47.5 -16.5q53 0 76 60h65q-8 -57 -45.5 -89.5t-95.5 -32.5t-94 32z" />
    <glyph glyph-name="Ohungarumlaut" unicode="&#x150;" horiz-adv-x="727" 
d="M133 75q-80 87 -80 258q0 170 79 257.5t231 87.5q151 0 231 -86.5t80 -258.5q0 -170 -79.5 -257.5t-231.5 -87.5q-150 0 -230 87zM512.5 143.5q47.5 59.5 47.5 190.5q0 130 -48 189t-149 59t-149 -59t-48 -190t48 -190t149 -59q102 0 149.5 59.5zM330 834h86l-86 -115
h-59zM459 834h87l-86 -115h-60z" />
    <glyph glyph-name="ohungarumlaut" unicode="&#x151;" horiz-adv-x="578" 
d="M108.5 53q-60.5 68 -60.5 198q0 263 240 263q121 0 182 -67.5t61 -195.5t-63 -197t-179 -69q-120 0 -180.5 68zM426 251q0 88 -33 131.5t-105 43.5q-73 0 -104.5 -44.5t-31.5 -130.5t32.5 -131.5t103.5 -45.5q138 0 138 177zM252 686h86l-86 -115h-59zM381 686h87
l-86 -115h-60z" />
    <glyph glyph-name="OE" unicode="&#x152;" horiz-adv-x="1069" 
d="M673 574v-193h284v-94h-285v-5v-189h327v-93h-437v46q-74 -58 -199 -58q-150 0 -230 87t-80 258q0 170 79 257.5t231 87.5q123 0 199 -57v46h437v-93h-326zM512.5 143.5q47.5 59.5 47.5 190.5q0 130 -48 189t-149 59t-149 -59t-48 -190t48 -190t149 -59q102 0 149.5 59.5
z" />
    <glyph glyph-name="oe" unicode="&#x153;" horiz-adv-x="934" 
d="M833.5 438.5q54.5 -75.5 53.5 -211.5h-352q5 -74 43.5 -112.5t109.5 -38.5q46 0 88 11.5t74 29.5v-98q-78 -34 -179 -34q-62 0 -111 21.5t-80 62.5q-61 -84 -191 -84q-120 0 -180.5 68t-60.5 198q0 263 240 263q132 0 192 -80q60 80 182 80q117 0 171.5 -75.5zM576 400
q-30 -28 -39 -95h243q-7 64 -36 93.5t-85 29.5q-53 0 -83 -28zM426 251q0 88 -33 131.5t-105 43.5q-73 0 -104.5 -44.5t-31.5 -130.5t32.5 -131.5t103.5 -45.5q138 0 138 177z" />
    <glyph glyph-name="Racute" unicode="&#x154;" horiz-adv-x="665" 
d="M486 0l-156 252h-141v-252h-110v667h296q105 0 160.5 -50.5t55.5 -150.5q0 -72 -39.5 -126t-106.5 -69l178 -271h-137zM189 342h155q66 0 98.5 29t32.5 88q0 57 -26.5 86t-86.5 29h-173v-232zM332 841h109l-98 -114h-59z" />
    <glyph glyph-name="racute" unicode="&#x155;" horiz-adv-x="399" 
d="M74 456q28 17 95 37t133 20q40 0 68 -13v-84q-28 4 -67 4q-66 0 -124 -10v-410h-105v456zM206 683h105l-95 -118h-62z" />
    <glyph glyph-name="Rcommaaccent" unicode="&#x156;" horiz-adv-x="665" 
d="M486 0l-156 252h-141v-252h-110v667h296q105 0 160.5 -50.5t55.5 -150.5q0 -72 -39.5 -126t-106.5 -69l178 -271h-137zM189 342h155q66 0 98.5 29t32.5 88q0 57 -26.5 86t-86.5 29h-173v-232zM269 -133q24 8 32 30t7 54h83q1 -65 -34 -101.5t-88 -42.5v60z" />
    <glyph glyph-name="rcommaaccent" unicode="&#x157;" horiz-adv-x="399" 
d="M74 456q28 17 95 37t133 20q40 0 68 -13v-84q-28 4 -67 4q-66 0 -124 -10v-410h-105v456zM46 -133q24 8 32 30t7 54h83q1 -65 -34 -101.5t-88 -42.5v60z" />
    <glyph glyph-name="Rcaron" unicode="&#x158;" horiz-adv-x="665" 
d="M486 0l-156 252h-141v-252h-110v667h296q105 0 160.5 -50.5t55.5 -150.5q0 -72 -39.5 -126t-106.5 -69l178 -271h-137zM189 342h155q66 0 98.5 29t32.5 88q0 57 -26.5 86t-86.5 29h-173v-232zM192 824h73l44 -66l44 66h73l-77 -121h-76z" />
    <glyph glyph-name="rcaron" unicode="&#x159;" horiz-adv-x="399" 
d="M74 456q28 17 95 37t133 20q40 0 68 -13v-84q-28 4 -67 4q-66 0 -124 -10v-410h-105v456zM71 691h73l44 -66l44 66h73l-77 -121h-76z" />
    <glyph glyph-name="Sacute" unicode="&#x15a;" horiz-adv-x="564" 
d="M164 0.5q-48 12.5 -102 40.5v110q39 -32 95.5 -51.5t118.5 -19.5q61 0 92 25t31 71q0 31 -18 51t-45 33t-76 31l-22 8q-55 19 -90.5 39t-59.5 57t-24 95q0 48 24 91t75 70.5t128 27.5q56 0 93.5 -10.5t89.5 -35.5v-108q-51 32 -88 47.5t-88 15.5q-59 0 -90 -24t-31 -63
q0 -33 17 -53.5t44.5 -33t79.5 -29.5q61 -20 101.5 -41.5t66.5 -59t26 -95.5q0 -55 -24.5 -100.5t-76 -73t-128.5 -27.5q-71 0 -119 12.5zM312 850h109l-98 -114h-59z" />
    <glyph glyph-name="sacute" unicode="&#x15b;" horiz-adv-x="467" 
d="M132.5 -5q-36.5 10 -78.5 30v99q45 -28 82 -41.5t83 -13.5q43 0 67.5 17.5t24.5 45.5q0 27 -20 40t-62 28l-23 8q-70 17 -111.5 49t-41.5 100q0 53 28 88t70.5 51t89.5 16q48 -1 81 -11.5t72 -30.5v-90q-52 27 -78.5 37t-63.5 10q-41 0 -66 -15t-25 -42q0 -32 25 -46.5
t78 -29.5q50 -14 79.5 -27t52 -42.5t22.5 -80.5q-1 -80 -58.5 -119.5t-140.5 -39.5q-50 0 -86.5 10zM253 683h105l-95 -118h-62z" />
    <glyph glyph-name="Scircumflex" unicode="&#x15c;" horiz-adv-x="564" 
d="M164 0.5q-48 12.5 -102 40.5v110q39 -32 95.5 -51.5t118.5 -19.5q61 0 92 25t31 71q0 31 -18 51t-45 33t-76 31l-22 8q-55 19 -90.5 39t-59.5 57t-24 95q0 48 24 91t75 70.5t128 27.5q56 0 93.5 -10.5t89.5 -35.5v-108q-51 32 -88 47.5t-88 15.5q-59 0 -90 -24t-31 -63
q0 -33 17 -53.5t44.5 -33t79.5 -29.5q61 -20 101.5 -41.5t66.5 -59t26 -95.5q0 -55 -24.5 -100.5t-76 -73t-128.5 -27.5q-71 0 -119 12.5zM247 846h87l83 -121h-69l-58 65l-58 -65h-69z" />
    <glyph glyph-name="scircumflex" unicode="&#x15d;" horiz-adv-x="467" 
d="M132.5 -5q-36.5 10 -78.5 30v99q45 -28 82 -41.5t83 -13.5q43 0 67.5 17.5t24.5 45.5q0 27 -20 40t-62 28l-23 8q-70 17 -111.5 49t-41.5 100q0 53 28 88t70.5 51t89.5 16q48 -1 81 -11.5t72 -30.5v-90q-52 27 -78.5 37t-63.5 10q-41 0 -66 -15t-25 -42q0 -32 25 -46.5
t78 -29.5q50 -14 79.5 -27t52 -42.5t22.5 -80.5q-1 -80 -58.5 -119.5t-140.5 -39.5q-50 0 -86.5 10zM196 688h87l83 -121h-69l-58 65l-58 -65h-69z" />
    <glyph glyph-name="Scedilla" unicode="&#x15e;" horiz-adv-x="564" 
d="M466.5 58.5q-45.5 -55.5 -135.5 -67.5l-51 -106h-101l73 104q-57 2 -98.5 14.5t-91.5 37.5v110q39 -32 95.5 -51.5t118.5 -19.5q61 0 92 25t31 71q0 31 -18 51t-45 33t-76 31l-22 8q-55 19 -90.5 39t-59.5 57t-24 95q0 48 24 91t75 70.5t128 27.5q56 0 93.5 -10.5
t89.5 -35.5v-108q-51 32 -88 47.5t-88 15.5q-59 0 -90 -24t-31 -63q0 -33 17 -53.5t44.5 -33t79.5 -29.5q61 -20 101.5 -41.5t66.5 -59t26 -95.5q0 -75 -45.5 -130.5z" />
    <glyph glyph-name="scedilla" unicode="&#x15f;" horiz-adv-x="467" 
d="M382 45.5q-35 -37.5 -92 -52.5l-57 -119h-101l78 111q-46 1 -80.5 11t-75.5 29v99q45 -28 82 -41.5t83 -13.5q43 0 67.5 17.5t24.5 45.5q0 27 -20 40t-62 28l-23 8q-70 17 -111.5 49t-41.5 100q0 53 28 88t70.5 51t89.5 16q48 -1 81 -11.5t72 -30.5v-90q-52 27 -78.5 37
t-63.5 10q-41 0 -66 -15t-25 -42q0 -32 25 -46.5t78 -29.5q50 -14 79.5 -27t52 -42.5t22.5 -80.5q-1 -61 -36 -98.5z" />
    <glyph glyph-name="Scaron" unicode="&#x160;" horiz-adv-x="564" 
d="M164 0.5q-48 12.5 -102 40.5v110q39 -32 95.5 -51.5t118.5 -19.5q61 0 92 25t31 71q0 31 -18 51t-45 33t-76 31l-22 8q-55 19 -90.5 39t-59.5 57t-24 95q0 48 24 91t75 70.5t128 27.5q56 0 93.5 -10.5t89.5 -35.5v-108q-51 32 -88 47.5t-88 15.5q-59 0 -90 -24t-31 -63
q0 -33 17 -53.5t44.5 -33t79.5 -29.5q61 -20 101.5 -41.5t66.5 -59t26 -95.5q0 -55 -24.5 -100.5t-76 -73t-128.5 -27.5q-71 0 -119 12.5zM172 833h73l44 -66l44 66h73l-77 -121h-76z" />
    <glyph glyph-name="scaron" unicode="&#x161;" horiz-adv-x="467" 
d="M132.5 -5q-36.5 10 -78.5 30v99q45 -28 82 -41.5t83 -13.5q43 0 67.5 17.5t24.5 45.5q0 27 -20 40t-62 28l-23 8q-70 17 -111.5 49t-41.5 100q0 53 28 88t70.5 51t89.5 16q48 -1 81 -11.5t72 -30.5v-90q-52 27 -78.5 37t-63.5 10q-41 0 -66 -15t-25 -42q0 -32 25 -46.5
t78 -29.5q50 -14 79.5 -27t52 -42.5t22.5 -80.5q-1 -80 -58.5 -119.5t-140.5 -39.5q-50 0 -86.5 10zM118 691h73l44 -66l44 66h73l-77 -121h-76z" />
    <glyph glyph-name="uni0162" unicode="&#x162;" horiz-adv-x="585" 
d="M347 574v-568h11l-58 -121h-101l81 115h-43v574h-215v93h541v-93h-216z" />
    <glyph glyph-name="uni0163" unicode="&#x163;" horiz-adv-x="384" 
d="M214 415v-265q0 -37 13 -53.5t46 -16.5q16 0 33.5 4.5t29.5 11.5v-93q-30 -14 -73 -16l-54 -113h-101l85 121h2q-43 14 -66 48t-23 86v286h-81v87h81v140h108v-140h122v-87h-122z" />
    <glyph glyph-name="Tcaron" unicode="&#x164;" horiz-adv-x="572" 
d="M172 845h69l45 -63l44 63h70l-93 -121h-43zM235 571h-223v96h548v-96h-223v-571h-102v571z" />
    <glyph glyph-name="tcaron" unicode="&#x165;" horiz-adv-x="395" 
d="M145 24q-39 37 -39 105v286h-81v87h81v140h108v-140h122v-87h-122v-265q0 -37 13 -53.5t46 -16.5q16 0 33.5 4.5t29.5 11.5v-93q-35 -16 -83 -16q-69 0 -108 37zM344 748h99l-87 -196h-86z" />
    <glyph glyph-name="Tbar" unicode="&#x166;" horiz-adv-x="585" 
d="M347 574v-205h81v-70h-81v-299h-110v299h-77v70h77v205h-215v93h541v-93h-216z" />
    <glyph glyph-name="tbar" unicode="&#x167;" horiz-adv-x="365" 
d="M149 26.5q-44 34.5 -44 117.5v91h-68v71h68v112h-81v81h81v143h102v-143h122v-81h-122v-112h107v-71h-107v-102q0 -29 14.5 -42.5t45.5 -13.5q32 0 62 15v-84q-35 -16 -76 -16q-60 0 -104 34.5z" />
    <glyph glyph-name="Utilde" unicode="&#x168;" horiz-adv-x="706" 
d="M151 55q-72 70 -72 207v405h113v-404q0 -94 41 -139.5t123 -45.5q165 0 165 185v404h106v-405q0 -135 -71 -206t-196 -71q-137 0 -209 70zM200 726q-2 16 -2 24q0 44 27.5 72.5t64.5 28.5q24 0 43.5 -9.5t43.5 -27.5q19 -14 30.5 -20.5t24.5 -6.5q14 0 22 10t8 29
q0 9 -1 14h60q1 -6 1 -17q0 -45 -27.5 -73.5t-69.5 -28.5q-27 0 -48 10.5t-44 28.5q-17 13 -26.5 18.5t-19.5 5.5q-14 0 -23 -11.5t-9 -31.5q0 -10 1 -15h-56z" />
    <glyph glyph-name="utilde" unicode="&#x169;" horiz-adv-x="588" 
d="M132.5 36.5q-58.5 51.5 -58.5 150.5v315h105v-300q0 -64 28.5 -94.5t88.5 -30.5t88.5 30.5t28.5 94.5v300h101v-315q0 -99 -57 -150.5t-161 -51.5q-105 0 -163.5 51.5zM140 550q-2 16 -2 24q0 44 27.5 72.5t64.5 28.5q24 0 43.5 -9.5t43.5 -27.5q19 -14 30.5 -20.5
t24.5 -6.5q14 0 22 10t8 29q0 9 -1 14h60q1 -6 1 -17q0 -45 -27.5 -73.5t-69.5 -28.5q-27 0 -48 10.5t-44 28.5q-17 13 -26.5 18.5t-19.5 5.5q-14 0 -23 -11.5t-9 -31.5q0 -10 1 -15h-56z" />
    <glyph glyph-name="Umacron" unicode="&#x16a;" horiz-adv-x="706" 
d="M151 55q-72 70 -72 207v405h113v-404q0 -94 41 -139.5t123 -45.5q165 0 165 185v404h106v-405q0 -135 -71 -206t-196 -71q-137 0 -209 70zM225 788h252v-71h-252v71z" />
    <glyph glyph-name="umacron" unicode="&#x16b;" horiz-adv-x="588" 
d="M132.5 36.5q-58.5 51.5 -58.5 150.5v315h105v-300q0 -64 28.5 -94.5t88.5 -30.5t88.5 30.5t28.5 94.5v300h101v-315q0 -99 -57 -150.5t-161 -51.5q-105 0 -163.5 51.5zM169 643h252v-71h-252v71z" />
    <glyph glyph-name="Ubreve" unicode="&#x16c;" horiz-adv-x="706" 
d="M151 55q-72 70 -72 207v405h113v-404q0 -94 41 -139.5t123 -45.5q165 0 165 185v404h106v-405q0 -135 -71 -206t-196 -71q-137 0 -209 70zM260 732q-36 32 -48 90h65q10 -27 29.5 -43.5t47.5 -16.5q53 0 76 60h65q-8 -57 -45.5 -89.5t-95.5 -32.5t-94 32z" />
    <glyph glyph-name="ubreve" unicode="&#x16d;" horiz-adv-x="588" 
d="M132.5 36.5q-58.5 51.5 -58.5 150.5v315h105v-300q0 -64 28.5 -94.5t88.5 -30.5t88.5 30.5t28.5 94.5v300h101v-315q0 -99 -57 -150.5t-161 -51.5q-105 0 -163.5 51.5zM204 580q-36 32 -48 90h65q10 -27 29.5 -43.5t47.5 -16.5q53 0 76 60h65q-8 -57 -45.5 -89.5
t-95.5 -32.5t-94 32z" />
    <glyph glyph-name="Uring" unicode="&#x16e;" horiz-adv-x="706" 
d="M151 55q-72 70 -72 207v405h113v-404q0 -94 41 -139.5t123 -45.5q165 0 165 185v404h106v-405q0 -135 -71 -206t-196 -71q-137 0 -209 70zM269.5 677q-26.5 23 -26.5 70t26.5 70t82.5 23q109 0 109 -93t-109 -93q-56 0 -82.5 23zM392 713.5q11 9.5 11 33.5t-11 33.5
t-40 9.5q-30 0 -41 -9.5t-11 -33.5t11 -33.5t41 -9.5q29 0 40 9.5z" />
    <glyph glyph-name="uring" unicode="&#x16f;" horiz-adv-x="588" 
d="M132.5 36.5q-58.5 51.5 -58.5 150.5v315h105v-300q0 -64 28.5 -94.5t88.5 -30.5t88.5 30.5t28.5 94.5v300h101v-315q0 -99 -57 -150.5t-161 -51.5q-105 0 -163.5 51.5zM214.5 564q-26.5 23 -26.5 70t26.5 70t82.5 23q109 0 109 -93t-109 -93q-56 0 -82.5 23zM337 600.5
q11 9.5 11 33.5t-11 33.5t-40 9.5q-30 0 -41 -9.5t-11 -33.5t11 -33.5t41 -9.5q29 0 40 9.5z" />
    <glyph glyph-name="Uhungarumlaut" unicode="&#x170;" horiz-adv-x="706" 
d="M151 55q-72 70 -72 207v405h113v-404q0 -94 41 -139.5t123 -45.5q165 0 165 185v404h106v-405q0 -135 -71 -206t-196 -71q-137 0 -209 70zM314 828h86l-86 -115h-59zM443 828h87l-86 -115h-60z" />
    <glyph glyph-name="uhungarumlaut" unicode="&#x171;" horiz-adv-x="588" 
d="M132.5 36.5q-58.5 51.5 -58.5 150.5v315h105v-300q0 -64 28.5 -94.5t88.5 -30.5t88.5 30.5t28.5 94.5v300h101v-315q0 -99 -57 -150.5t-161 -51.5q-105 0 -163.5 51.5zM258 683h86l-86 -115h-59zM387 683h87l-86 -115h-60z" />
    <glyph glyph-name="Uogonek" unicode="&#x172;" horiz-adv-x="706" 
d="M627 667v-405q0 -105 -44 -172t-124 -91q-42 -19 -66.5 -40t-24.5 -41q0 -19 8.5 -26.5t25.5 -7.5q28 0 60 30v-73q-17 -9 -33.5 -14.5t-40.5 -5.5q-50 0 -77 22.5t-27 65.5q0 20 12 40t33 37q-122 8 -186 78t-64 198v405h113v-404q0 -94 41 -139.5t123 -45.5
q165 0 165 185v404h106z" />
    <glyph glyph-name="uogonek" unicode="&#x173;" horiz-adv-x="588" 
d="M514 502v-315q0 -71 -30 -118t-86 -68l8 -1q-94 -43 -94 -82q0 -19 8.5 -26.5t25.5 -7.5q28 0 60 30v-73q-17 -9 -33.5 -14.5t-40.5 -5.5q-50 0 -77 22.5t-27 65.5q0 20 11.5 40.5t33.5 36.5q-94 5 -146.5 56.5t-52.5 144.5v315h105v-300q0 -64 28.5 -94.5t88.5 -30.5
t88.5 30.5t28.5 94.5v300h101z" />
    <glyph glyph-name="Wcircumflex" unicode="&#x174;" horiz-adv-x="990" 
d="M965 667l-203 -667h-110l-157 501l-157 -501h-111l-202 667h119l148 -528l156 528h95l157 -527l146 527h119zM453 837h87l83 -121h-69l-58 65l-58 -65h-69z" />
    <glyph glyph-name="wcircumflex" unicode="&#x175;" horiz-adv-x="809" 
d="M779 502l-167 -502h-100l-108 357l-107 -357h-99l-167 502h112l112 -378l106 378h87l109 -380l114 380h108zM366 682h87l83 -121h-69l-58 65l-58 -65h-69z" />
    <glyph glyph-name="Ycircumflex" unicode="&#x176;" horiz-adv-x="638" 
d="M377 298v-298h-110v299l-251 368h135l178 -277l171 277h119zM290 837h87l83 -121h-69l-58 65l-58 -65h-69z" />
    <glyph glyph-name="ycircumflex" unicode="&#x177;" horiz-adv-x="563" 
d="M532 502l-207 -533q-64 -163 -173 -163q-39 0 -66 12v90q25 -10 50 -10q39 0 61.5 26t38.5 79l-205 499h119l137 -375l136 375h109zM245 682h87l83 -121h-69l-58 65l-58 -65h-69z" />
    <glyph glyph-name="Ydieresis" unicode="&#x178;" horiz-adv-x="638" 
d="M377 298v-298h-110v299l-251 368h135l178 -277l171 277h119zM199 805h101v-88h-101v88zM363 805h100v-88h-100v88z" />
    <glyph glyph-name="Zacute" unicode="&#x179;" horiz-adv-x="620" 
d="M556 583l-358 -490h358v-93h-496v87l364 487h-356v93h488v-84zM335 841h109l-98 -114h-59z" />
    <glyph glyph-name="zacute" unicode="&#x17a;" horiz-adv-x="471" 
d="M426 416l-255 -328h255v-88h-381v88l265 331h-259v83h375v-86zM256 677h105l-95 -118h-62z" />
    <glyph glyph-name="Zdotaccent" unicode="&#x17b;" horiz-adv-x="620" 
d="M556 583l-358 -490h358v-93h-496v87l364 487h-356v93h488v-84zM260 789h97v-88h-97v88z" />
    <glyph glyph-name="zdotaccent" unicode="&#x17c;" horiz-adv-x="471" 
d="M426 416l-255 -328h255v-88h-381v88l265 331h-259v83h375v-86zM186 647h97v-88h-97v88z" />
    <glyph glyph-name="Zcaron" unicode="&#x17d;" horiz-adv-x="620" 
d="M556 583l-358 -490h358v-93h-496v87l364 487h-356v93h488v-84zM195 824h73l44 -66l44 66h73l-77 -121h-76z" />
    <glyph glyph-name="zcaron" unicode="&#x17e;" horiz-adv-x="471" 
d="M426 416l-255 -328h255v-88h-381v88l265 331h-259v83h375v-86zM121 685h73l44 -66l44 66h73l-77 -121h-76z" />
    <glyph glyph-name="uni018F" unicode="&#x18f;" horiz-adv-x="726" 
d="M521 635.5q73 -40.5 113 -119.5t40 -192q0 -165 -83.5 -252t-233.5 -87q-157 0 -231.5 96t-72.5 267h507q-5 117 -64 175.5t-165 58.5q-67 0 -132.5 -18.5t-108.5 -43.5v100q112 56 258 56q100 0 173 -40.5zM498.5 117.5q49.5 43.5 59.5 149.5h-395q7 -103 54.5 -148
t142.5 -45q89 0 138.5 43.5z" />
    <glyph glyph-name="florin" unicode="&#x192;" horiz-adv-x="339" 
d="M8 -119v77q12 -2 24 -2q30 0 48.5 5.5t32 28.5t13.5 73v358h-86v80h86v10q2 180 165 180q8 0 41 -3v-78q-18 2 -24 2q-28 0 -47.5 -5.5t-33 -28t-13.5 -67.5v-10h118v-80h-118v-357q0 -110 -49.5 -148t-115.5 -38q-27 0 -41 3z" />
    <glyph glyph-name="uni019D" unicode="&#x19d;" horiz-adv-x="745" 
d="M666 667v-667h-99l-361 496v-514q0 -175 -197 -175v90q52 -1 72 20t20 67v683h106l354 -490v490h105z" />
    <glyph glyph-name="Ohorn" unicode="&#x1a0;" horiz-adv-x="727" 
d="M674 333q0 -170 -79.5 -257.5t-231.5 -87.5q-150 0 -230 87t-80 258q0 170 79 257.5t231 87.5q59 0 109 -14q26 5 43 20.5t17 37.5v31h69v-40q0 -57 -45 -88q118 -83 118 -292zM512.5 143.5q47.5 59.5 47.5 190.5q0 130 -48 189t-149 59t-149 -59t-48 -190t48 -190
t149 -59q102 0 149.5 59.5z" />
    <glyph glyph-name="ohorn" unicode="&#x1a1;" horiz-adv-x="578" 
d="M531 251q0 -128 -63 -197t-179 -69q-120 0 -180.5 68t-60.5 198q0 263 240 263q54 0 93 -13q27 3 46 19.5t19 39.5v31h69v-40q0 -32 -14.5 -56t-40.5 -38q71 -67 71 -206zM426 251q0 88 -33 131.5t-105 43.5q-73 0 -104.5 -44.5t-31.5 -130.5t32.5 -131.5t103.5 -45.5
q138 0 138 177z" />
    <glyph glyph-name="Uhorn" unicode="&#x1af;" horiz-adv-x="773" 
d="M721 756v-40q0 -43 -25.5 -71t-68.5 -38v-345q0 -135 -71 -206t-196 -71q-137 0 -209 70t-72 207v405h113v-404q0 -94 41 -139.5t123 -45.5q165 0 165 185v404h70q26 4 43.5 20t17.5 38v31h69z" />
    <glyph glyph-name="uhorn" unicode="&#x1b0;" horiz-adv-x="588" 
d="M607 592v-40q0 -43 -25.5 -71t-67.5 -38v-256q0 -99 -57 -150.5t-161 -51.5q-105 0 -163.5 51.5t-58.5 150.5v315h105v-300q0 -64 28.5 -94.5t88.5 -30.5t88.5 30.5t28.5 94.5v300h50q31 0 53 17t22 42v31h69z" />
    <glyph glyph-name="uni01C4" unicode="&#x1c4;" horiz-adv-x="1306" 
d="M79 667h234q320 0 320 -333q0 -334 -320 -334h-234v667zM302 93q112 0 165 58t53 183t-53 183t-165 58h-113v-482h113zM1242 583l-358 -490h358v-93h-496v87l364 487h-356v93h488v-84zM881 824h73l44 -66l44 66h73l-77 -121h-76z" />
    <glyph glyph-name="uni01C5" unicode="&#x1c5;" horiz-adv-x="1157" 
d="M79 667h234q320 0 320 -333q0 -334 -320 -334h-234v667zM302 93q112 0 165 58t53 183t-53 183t-165 58h-113v-482h113zM1112 416l-255 -328h255v-88h-381v88l265 331h-259v83h375v-86zM807 685h73l44 -66l44 66h73l-77 -121h-76z" />
    <glyph glyph-name="uni01C6" unicode="&#x1c6;" horiz-adv-x="1057" 
d="M512 712v-606q0 -40 -33 -67.5t-83 -40.5t-103 -13q-107 0 -176 60.5t-69 211.5q0 121 59 189t175 68q27 0 62.5 -7t63.5 -21v226h104zM408 395q-24 14 -53.5 21.5t-57.5 7.5q-142 0 -142 -169q0 -84 32 -131.5t112 -47.5q46 0 77.5 11t31.5 29v279zM1012 416l-255 -328
h255v-88h-381v88l265 331h-259v83h375v-86zM707 685h73l44 -66l44 66h73l-77 -121h-76z" />
    <glyph glyph-name="uni01C7" unicode="&#x1c7;" horiz-adv-x="1001" 
d="M79 667h111v-573h319v-94h-430v667zM578 26v106q64 -47 120 -47q58 0 85.5 28.5t27.5 93.5v460h111v-467q0 -115 -58.5 -162.5t-143.5 -47.5q-75 0 -142 36z" />
    <glyph glyph-name="uni01C8" unicode="&#x1c8;" horiz-adv-x="820" 
d="M79 667h111v-573h319v-94h-430v667zM635 680h111v-95h-111v95zM546 -103q52 -1 72 20t20 67v518h105l1 -520q0 -175 -198 -175v90z" />
    <glyph glyph-name="uni01C9" unicode="&#x1c9;" horiz-adv-x="535" 
d="M74 0v692h104v-692h-104zM350 680h111v-95h-111v95zM261 -103q52 -1 72 20t20 67v518h105l1 -520q0 -175 -198 -175v90z" />
    <glyph glyph-name="uni01CA" unicode="&#x1ca;" horiz-adv-x="1187" 
d="M644 667v-667h-99l-361 496v-496h-105v667h106l354 -490v490h105zM764 26v106q64 -47 120 -47q58 0 85.5 28.5t27.5 93.5v460h111v-467q0 -115 -58.5 -162.5t-143.5 -47.5q-75 0 -142 36z" />
    <glyph glyph-name="uni01CB" unicode="&#x1cb;" horiz-adv-x="1006" 
d="M644 667v-667h-99l-361 496v-496h-105v667h106l354 -490v490h105zM821 680h111v-95h-111v95zM732 -103q52 -1 72 20t20 67v518h105l1 -520q0 -175 -198 -175v90z" />
    <glyph glyph-name="uni01CC" unicode="&#x1cc;" horiz-adv-x="869" 
d="M183.5 498.5q64.5 14.5 123.5 14.5q105 0 155 -44t50 -137v-332h-105v318q0 105 -119 105q-57 0 -109 -19v-404h-105v461q45 23 109.5 37.5zM684 680h111v-95h-111v95zM595 -103q52 -1 72 20t20 67v518h105l1 -520q0 -175 -198 -175v90z" />
    <glyph glyph-name="uni01CD" unicode="&#x1cd;" horiz-adv-x="664" 
d="M465 181h-273l-65 -181h-110l260 667h117l253 -667h-116zM432 271l-104 286l-103 -286h207zM215 824h73l44 -66l44 66h73l-77 -121h-76z" />
    <glyph glyph-name="uni01CE" unicode="&#x1ce;" horiz-adv-x="562" 
d="M430.5 473.5q57.5 -39.5 56.5 -127.5v-240q0 -68 -60 -94.5t-171 -26.5q-89 0 -147 37t-58 124q0 82 47.5 123t134.5 41q90 0 150 -36v48q0 102 -123 102q-44 0 -88 -13.5t-73 -37.5v98q28 18 81.5 30t110.5 12q82 0 139.5 -39.5zM357 76q26 9 26 36v97q-51 22 -112 22
q-57 0 -86.5 -20t-29.5 -60q0 -42 33.5 -63t79.5 -21q63 0 89 9zM170 694h73l44 -66l44 66h73l-77 -121h-76z" />
    <glyph glyph-name="uni01CF" unicode="&#x1cf;" horiz-adv-x="269" 
d="M79 667h111v-667h-111v667zM19 824h73l44 -66l44 66h73l-77 -121h-76z" />
    <glyph glyph-name="uni01D0" unicode="&#x1d0;" horiz-adv-x="254" 
d="M74 499h105l1 -499h-106v499zM9 685h73l44 -66l44 66h73l-77 -121h-76z" />
    <glyph glyph-name="uni01D1" unicode="&#x1d1;" horiz-adv-x="727" 
d="M133 75q-80 87 -80 258q0 170 79 257.5t231 87.5q151 0 231 -86.5t80 -258.5q0 -170 -79.5 -257.5t-231.5 -87.5q-150 0 -230 87zM512.5 143.5q47.5 59.5 47.5 190.5q0 130 -48 189t-149 59t-149 -59t-48 -190t48 -190t149 -59q102 0 149.5 59.5zM251 833h73l44 -66
l44 66h73l-77 -121h-76z" />
    <glyph glyph-name="uni01D2" unicode="&#x1d2;" horiz-adv-x="578" 
d="M108.5 53q-60.5 68 -60.5 198q0 263 240 263q121 0 182 -67.5t61 -195.5t-63 -197t-179 -69q-120 0 -180.5 68zM426 251q0 88 -33 131.5t-105 43.5q-73 0 -104.5 -44.5t-31.5 -130.5t32.5 -131.5t103.5 -45.5q138 0 138 177zM173 694h73l44 -66l44 66h73l-77 -121h-76z
" />
    <glyph glyph-name="uni01D3" unicode="&#x1d3;" horiz-adv-x="706" 
d="M151 55q-72 70 -72 207v405h113v-404q0 -94 41 -139.5t123 -45.5q165 0 165 185v404h106v-405q0 -135 -71 -206t-196 -71q-137 0 -209 70zM235 827h73l44 -66l44 66h73l-77 -121h-76z" />
    <glyph glyph-name="uni01D4" unicode="&#x1d4;" horiz-adv-x="588" 
d="M132.5 36.5q-58.5 51.5 -58.5 150.5v315h105v-300q0 -64 28.5 -94.5t88.5 -30.5t88.5 30.5t28.5 94.5v300h101v-315q0 -99 -57 -150.5t-161 -51.5q-105 0 -163.5 51.5zM179 691h73l44 -66l44 66h73l-77 -121h-76z" />
    <glyph glyph-name="Gcaron" unicode="&#x1e6;" horiz-adv-x="695" 
d="M134 74q-81 86 -81 260q0 173 81 258.5t234 85.5q119 0 223 -46v-106q-61 29 -110 44.5t-99 15.5q-111 0 -164.5 -60t-53.5 -192t53.5 -192t161.5 -60q73 0 127 20v159h-140v94h250v-306q-117 -61 -247 -61q-154 0 -235 86zM249 830h73l44 -66l44 66h73l-77 -121h-76z
" />
    <glyph glyph-name="gcaron" unicode="&#x1e7;" horiz-adv-x="579" 
d="M452.5 480q55.5 -33 55.5 -97v-398q0 -86 -56 -140t-178 -54q-89 0 -162 27v96q83 -31 154 -31q80 0 109 28.5t29 75.5v34q-29 -16 -63.5 -26t-67.5 -10q-110 2 -167.5 67t-57.5 185q0 156 72 216t192 60q85 0 140.5 -33zM189 116.5q34 -45.5 101 -45.5q65 0 114 29v263
q0 35 -26.5 48t-71.5 13q-85 0 -118 -49t-33 -135q0 -78 34 -123.5zM200 694h73l44 -66l44 66h73l-77 -121h-76z" />
    <glyph glyph-name="uni01EA" unicode="&#x1ea;" horiz-adv-x="727" 
d="M621.5 112q-52.5 -84 -153.5 -111l4 -1q-94 -43 -94 -82q0 -19 8.5 -26.5t25.5 -7.5q28 0 60 30v-73q-17 -9 -33.5 -14.5t-40.5 -5.5q-50 0 -77 22.5t-27 65.5q0 22 13 42t36 37q-141 6 -215.5 93t-74.5 252q0 170 79 257.5t231 87.5q151 0 231 -86.5t80 -258.5
q0 -137 -52.5 -221zM512.5 143.5q47.5 59.5 47.5 190.5q0 130 -48 189t-149 59t-149 -59t-48 -190t48 -190t149 -59q102 0 149.5 59.5z" />
    <glyph glyph-name="uni01EB" unicode="&#x1eb;" horiz-adv-x="578" 
d="M494.5 90.5q-36.5 -63.5 -106.5 -89.5l8 -1q-94 -43 -94 -82q0 -19 8.5 -26.5t25.5 -7.5q28 0 60 30v-73q-17 -9 -33.5 -14.5t-40.5 -5.5q-50 0 -77 22.5t-27 65.5q0 20 11.5 40.5t33.5 36.5q-107 7 -161 74.5t-54 190.5q0 263 240 263q121 0 182 -67.5t61 -195.5
q0 -97 -36.5 -160.5zM426 251q0 88 -33 131.5t-105 43.5q-73 0 -104.5 -44.5t-31.5 -130.5t32.5 -131.5t103.5 -45.5q138 0 138 177z" />
    <glyph glyph-name="uni01F2" unicode="&#x1f2;" horiz-adv-x="1157" 
d="M79 667h234q320 0 320 -333q0 -334 -320 -334h-234v667zM302 93q112 0 165 58t53 183t-53 183t-165 58h-113v-482h113zM1112 416l-255 -328h255v-88h-381v88l265 331h-259v83h375v-86z" />
    <glyph glyph-name="uni01F4" unicode="&#x1f4;" horiz-adv-x="695" 
d="M134 74q-81 86 -81 260q0 173 81 258.5t234 85.5q119 0 223 -46v-106q-61 29 -110 44.5t-99 15.5q-111 0 -164.5 -60t-53.5 -192t53.5 -192t161.5 -60q73 0 127 20v159h-140v94h250v-306q-117 -61 -247 -61q-154 0 -235 86zM389 847h109l-98 -114h-59z" />
    <glyph glyph-name="Aringacute" unicode="&#x1fa;" horiz-adv-x="664" 
d="M366 879h-59l48 114h109zM465 181h-273l-65 -181h-110l257 660q-51 19 -51 84q0 47 26.5 70t82.5 23q109 0 109 -93q0 -59 -45 -82l251 -662h-116zM291 777.5q-11 -9.5 -11 -33.5t11 -33.5t41 -9.5q29 0 40 9.5t11 33.5t-11 33.5t-40 9.5q-30 0 -41 -9.5zM432 271
l-104 286l-103 -286h207z" />
    <glyph glyph-name="aringacute" unicode="&#x1fb;" horiz-adv-x="562" 
d="M430.5 473.5q57.5 -39.5 56.5 -127.5v-240q0 -68 -60 -94.5t-171 -26.5q-89 0 -147 37t-58 124q0 82 47.5 123t134.5 41q90 0 150 -36v48q0 102 -123 102q-44 0 -88 -13.5t-73 -37.5v98q28 18 81.5 30t110.5 12q82 0 139.5 -39.5zM357 76q26 9 26 36v97q-51 22 -112 22
q-57 0 -86.5 -20t-29.5 -60q0 -42 33.5 -63t79.5 -21q63 0 89 9zM205.5 567q-26.5 23 -26.5 70t26.5 70t82.5 23q109 0 109 -93t-109 -93q-56 0 -82.5 23zM328 603.5q11 9.5 11 33.5t-11 33.5t-40 9.5q-30 0 -41 -9.5t-11 -33.5t11 -33.5t41 -9.5q29 0 40 9.5zM305 895h105
l-95 -118h-62z" />
    <glyph glyph-name="AEacute" unicode="&#x1fc;" horiz-adv-x="988" 
d="M602 574v-192h275v-94h-275v-194h315v-94h-426v182h-228l-121 -182h-125l460 667h440v-93h-315zM491 274v251l-167 -251h167zM718 841h109l-98 -114h-59z" />
    <glyph glyph-name="aeacute" unicode="&#x1fd;" horiz-adv-x="889" 
d="M788.5 437.5q54.5 -75.5 52.5 -210.5h-354q0 -76 39.5 -115t115.5 -39q47 0 88.5 12t72.5 32v-98q-74 -37 -179 -37q-56 0 -101.5 17t-76.5 49q-87 -66 -187 -66q-96 0 -152 38.5t-56 122.5t54 125.5t147 41.5q36 0 70 -8.5t61 -23.5v43q0 102 -123 102
q-43 0 -87.5 -13.5t-73.5 -36.5v98q28 18 81.5 30t110.5 12q49 0 91.5 -14.5t69.5 -45.5q59 60 164 60q118 0 172.5 -75.5zM529 399q-30 -28 -39 -94h244q-6 63 -35.5 92.5t-85.5 29.5q-54 0 -84 -28zM346.5 74.5q37.5 10.5 60.5 30.5q-21 43 -24 104q-55 22 -112 22
q-116 0 -116 -86q0 -40 33 -60.5t82 -20.5q39 0 76.5 10.5zM467 683h105l-95 -118h-62z" />
    <glyph glyph-name="Oslashacute" unicode="&#x1fe;" horiz-adv-x="727" 
d="M613 567q61 -85 61 -234q0 -170 -79.5 -257.5t-231.5 -87.5q-123 0 -198 57l-39 -45h-83l77 90q-67 87 -67 243q0 170 79 257.5t231 87.5q130 0 207 -64l45 53h84zM194 176l308 359q-48 47 -139 47q-101 0 -149 -59t-48 -190q0 -100 28 -157zM538 479l-305 -355
q46 -40 130 -40q102 0 149.5 59.5t47.5 190.5q0 91 -22 145zM386 841h109l-98 -114h-59z" />
    <glyph glyph-name="oslashacute" unicode="&#x1ff;" horiz-adv-x="586" 
d="M489 422q42 -66 42 -171q0 -128 -63 -197t-179 -69q-85 0 -140 35l-17 -20h-103l63 74q-44 67 -44 177q0 263 240 263q87 0 146 -37l18 22h103zM164 160l207 244q-33 22 -83 22q-73 0 -104.5 -44.5t-31.5 -130.5q0 -53 12 -91zM416 335l-205 -241q31 -20 77 -20
q138 0 138 177q0 51 -10 84zM310 677h105l-95 -118h-62z" />
    <glyph glyph-name="uni0200" unicode="&#x200;" horiz-adv-x="664" 
d="M465 181h-273l-65 -181h-110l260 667h117l253 -667h-116zM432 271l-104 286l-103 -286h207zM150 840h99l52 -114h-62zM294 841h99l52 -114h-62z" />
    <glyph glyph-name="uni0201" unicode="&#x201;" horiz-adv-x="562" 
d="M430.5 473.5q57.5 -39.5 56.5 -127.5v-240q0 -68 -60 -94.5t-171 -26.5q-89 0 -147 37t-58 124q0 82 47.5 123t134.5 41q90 0 150 -36v48q0 102 -123 102q-44 0 -88 -13.5t-73 -37.5v98q28 18 81.5 30t110.5 12q82 0 139.5 -39.5zM357 76q26 9 26 36v97q-51 22 -112 22
q-57 0 -86.5 -20t-29.5 -60q0 -42 33.5 -63t79.5 -21q63 0 89 9zM110 686h104l53 -118h-62zM265 686h104l53 -118h-62z" />
    <glyph glyph-name="uni0202" unicode="&#x202;" horiz-adv-x="664" 
d="M465 181h-273l-65 -181h-110l260 667h117l253 -667h-116zM432 271l-104 286l-103 -286h207zM429.5 774.5q37.5 -32.5 45.5 -89.5h-65q-23 60 -76 60q-28 0 -47.5 -16.5t-29.5 -43.5h-65q12 58 48 90t94 32t95.5 -32.5z" />
    <glyph glyph-name="uni0203" unicode="&#x203;" horiz-adv-x="562" 
d="M430.5 473.5q57.5 -39.5 56.5 -127.5v-240q0 -68 -60 -94.5t-171 -26.5q-89 0 -147 37t-58 124q0 82 47.5 123t134.5 41q90 0 150 -36v48q0 102 -123 102q-44 0 -88 -13.5t-73 -37.5v98q28 18 81.5 30t110.5 12q82 0 139.5 -39.5zM357 76q26 9 26 36v97q-51 22 -112 22
q-57 0 -86.5 -20t-29.5 -60q0 -42 33.5 -63t79.5 -21q63 0 89 9zM384.5 629.5q37.5 -32.5 45.5 -89.5h-65q-23 60 -76 60q-28 0 -47.5 -16.5t-29.5 -43.5h-65q12 58 48 90t94 32t95.5 -32.5z" />
    <glyph glyph-name="uni0204" unicode="&#x204;" horiz-adv-x="586" 
d="M79 667h437v-93h-326v-193h284v-94h-285v-194h327v-93h-437v667zM123 840h99l52 -114h-62zM267 841h99l52 -114h-62z" />
    <glyph glyph-name="uni0205" unicode="&#x205;" horiz-adv-x="553" 
d="M452.5 438.5q54.5 -75.5 53.5 -211.5h-352q5 -74 43.5 -112.5t109.5 -38.5q46 0 88 11.5t74 29.5v-98q-78 -34 -179 -34q-113 0 -177.5 68.5t-64.5 194.5q0 129 61 197.5t172 68.5q117 0 171.5 -75.5zM195 400q-30 -28 -39 -95h243q-7 64 -36 93.5t-85 29.5
q-53 0 -83 -28zM107 683h104l53 -118h-62zM262 683h104l53 -118h-62z" />
    <glyph glyph-name="uni0206" unicode="&#x206;" horiz-adv-x="586" 
d="M79 667h437v-93h-326v-193h284v-94h-285v-194h327v-93h-437v667zM402.5 774.5q37.5 -32.5 45.5 -89.5h-65q-23 60 -76 60q-28 0 -47.5 -16.5t-29.5 -43.5h-65q12 58 48 90t94 32t95.5 -32.5z" />
    <glyph glyph-name="uni0207" unicode="&#x207;" horiz-adv-x="553" 
d="M452.5 438.5q54.5 -75.5 53.5 -211.5h-352q5 -74 43.5 -112.5t109.5 -38.5q46 0 88 11.5t74 29.5v-98q-78 -34 -179 -34q-113 0 -177.5 68.5t-64.5 194.5q0 129 61 197.5t172 68.5q117 0 171.5 -75.5zM195 400q-30 -28 -39 -95h243q-7 64 -36 93.5t-85 29.5
q-53 0 -83 -28zM381.5 626.5q37.5 -32.5 45.5 -89.5h-65q-23 60 -76 60q-28 0 -47.5 -16.5t-29.5 -43.5h-65q12 58 48 90t94 32t95.5 -32.5z" />
    <glyph glyph-name="uni0208" unicode="&#x208;" horiz-adv-x="269" 
d="M79 667h111v-667h-111v667zM-46 840h99l52 -114h-62zM98 841h99l52 -114h-62z" />
    <glyph glyph-name="uni0209" unicode="&#x209;" horiz-adv-x="254" 
d="M74 499h105l1 -499h-106v499zM-51 677h104l53 -118h-62zM104 677h104l53 -118h-62z" />
    <glyph glyph-name="uni020A" unicode="&#x20a;" horiz-adv-x="269" 
d="M79 667h111v-667h-111v667zM232.5 774.5q37.5 -32.5 45.5 -89.5h-65q-23 60 -76 60q-28 0 -47.5 -16.5t-29.5 -43.5h-65q12 58 48 90t94 32t95.5 -32.5z" />
    <glyph glyph-name="uni020B" unicode="&#x20b;" horiz-adv-x="254" 
d="M74 499h105l1 -499h-106v499zM222.5 620.5q37.5 -32.5 45.5 -89.5h-65q-23 60 -76 60q-28 0 -47.5 -16.5t-29.5 -43.5h-65q12 58 48 90t94 32t95.5 -32.5z" />
    <glyph glyph-name="uni020C" unicode="&#x20c;" horiz-adv-x="727" 
d="M133 75q-80 87 -80 258q0 170 79 257.5t231 87.5q151 0 231 -86.5t80 -258.5q0 -170 -79.5 -257.5t-231.5 -87.5q-150 0 -230 87zM512.5 143.5q47.5 59.5 47.5 190.5q0 130 -48 189t-149 59t-149 -59t-48 -190t48 -190t149 -59q102 0 149.5 59.5zM186 849h99l52 -114h-62
zM330 850h99l52 -114h-62z" />
    <glyph glyph-name="uni020D" unicode="&#x20d;" horiz-adv-x="578" 
d="M108.5 53q-60.5 68 -60.5 198q0 263 240 263q121 0 182 -67.5t61 -195.5t-63 -197t-179 -69q-120 0 -180.5 68zM426 251q0 88 -33 131.5t-105 43.5q-73 0 -104.5 -44.5t-31.5 -130.5t32.5 -131.5t103.5 -45.5q138 0 138 177zM113 686h104l53 -118h-62zM268 686h104
l53 -118h-62z" />
    <glyph glyph-name="uni020E" unicode="&#x20e;" horiz-adv-x="727" 
d="M133 75q-80 87 -80 258q0 170 79 257.5t231 87.5q151 0 231 -86.5t80 -258.5q0 -170 -79.5 -257.5t-231.5 -87.5q-150 0 -230 87zM512.5 143.5q47.5 59.5 47.5 190.5q0 130 -48 189t-149 59t-149 -59t-48 -190t48 -190t149 -59q102 0 149.5 59.5zM465.5 783.5
q37.5 -32.5 45.5 -89.5h-65q-23 60 -76 60q-28 0 -47.5 -16.5t-29.5 -43.5h-65q12 58 48 90t94 32t95.5 -32.5z" />
    <glyph glyph-name="uni020F" unicode="&#x20f;" horiz-adv-x="578" 
d="M108.5 53q-60.5 68 -60.5 198q0 263 240 263q121 0 182 -67.5t61 -195.5t-63 -197t-179 -69q-120 0 -180.5 68zM426 251q0 88 -33 131.5t-105 43.5q-73 0 -104.5 -44.5t-31.5 -130.5t32.5 -131.5t103.5 -45.5q138 0 138 177zM387.5 629.5q37.5 -32.5 45.5 -89.5h-65
q-23 60 -76 60q-28 0 -47.5 -16.5t-29.5 -43.5h-65q12 58 48 90t94 32t95.5 -32.5z" />
    <glyph glyph-name="uni0210" unicode="&#x210;" horiz-adv-x="665" 
d="M486 0l-156 252h-141v-252h-110v667h296q105 0 160.5 -50.5t55.5 -150.5q0 -72 -39.5 -126t-106.5 -69l178 -271h-137zM189 342h155q66 0 98.5 29t32.5 88q0 57 -26.5 86t-86.5 29h-173v-232zM127 840h99l52 -114h-62zM271 841h99l52 -114h-62z" />
    <glyph glyph-name="uni0211" unicode="&#x211;" horiz-adv-x="399" 
d="M74 456q28 17 95 37t133 20q40 0 68 -13v-84q-28 4 -67 4q-66 0 -124 -10v-410h-105v456zM11 683h104l53 -118h-62zM166 683h104l53 -118h-62z" />
    <glyph glyph-name="uni0212" unicode="&#x212;" horiz-adv-x="665" 
d="M486 0l-156 252h-141v-252h-110v667h296q105 0 160.5 -50.5t55.5 -150.5q0 -72 -39.5 -126t-106.5 -69l178 -271h-137zM189 342h155q66 0 98.5 29t32.5 88q0 57 -26.5 86t-86.5 29h-173v-232zM406.5 774.5q37.5 -32.5 45.5 -89.5h-65q-23 60 -76 60q-28 0 -47.5 -16.5
t-29.5 -43.5h-65q12 58 48 90t94 32t95.5 -32.5z" />
    <glyph glyph-name="uni0213" unicode="&#x213;" horiz-adv-x="399" 
d="M74 456q28 17 95 37t133 20q40 0 68 -13v-84q-28 4 -67 4q-66 0 -124 -10v-410h-105v456zM284.5 626.5q37.5 -32.5 45.5 -89.5h-65q-23 60 -76 60q-28 0 -47.5 -16.5t-29.5 -43.5h-65q12 58 48 90t94 32t95.5 -32.5z" />
    <glyph glyph-name="uni0214" unicode="&#x214;" horiz-adv-x="706" 
d="M151 55q-72 70 -72 207v405h113v-404q0 -94 41 -139.5t123 -45.5q165 0 165 185v404h106v-405q0 -135 -71 -206t-196 -71q-137 0 -209 70zM170 843h99l52 -114h-62zM314 844h99l52 -114h-62z" />
    <glyph glyph-name="uni0215" unicode="&#x215;" horiz-adv-x="588" 
d="M132.5 36.5q-58.5 51.5 -58.5 150.5v315h105v-300q0 -64 28.5 -94.5t88.5 -30.5t88.5 30.5t28.5 94.5v300h101v-315q0 -99 -57 -150.5t-161 -51.5q-105 0 -163.5 51.5zM119 683h104l53 -118h-62zM274 683h104l53 -118h-62z" />
    <glyph glyph-name="uni0216" unicode="&#x216;" horiz-adv-x="706" 
d="M151 55q-72 70 -72 207v405h113v-404q0 -94 41 -139.5t123 -45.5q165 0 165 185v404h106v-405q0 -135 -71 -206t-196 -71q-137 0 -209 70zM449.5 777.5q37.5 -32.5 45.5 -89.5h-65q-23 60 -76 60q-28 0 -47.5 -16.5t-29.5 -43.5h-65q12 58 48 90t94 32t95.5 -32.5z" />
    <glyph glyph-name="uni0217" unicode="&#x217;" horiz-adv-x="588" 
d="M132.5 36.5q-58.5 51.5 -58.5 150.5v315h105v-300q0 -64 28.5 -94.5t88.5 -30.5t88.5 30.5t28.5 94.5v300h101v-315q0 -99 -57 -150.5t-161 -51.5q-105 0 -163.5 51.5zM393.5 626.5q37.5 -32.5 45.5 -89.5h-65q-23 60 -76 60q-28 0 -47.5 -16.5t-29.5 -43.5h-65
q12 58 48 90t94 32t95.5 -32.5z" />
    <glyph glyph-name="Scommaaccent" unicode="&#x218;" horiz-adv-x="564" 
d="M164 0.5q-48 12.5 -102 40.5v110q39 -32 95.5 -51.5t118.5 -19.5q61 0 92 25t31 71q0 31 -18 51t-45 33t-76 31l-22 8q-55 19 -90.5 39t-59.5 57t-24 95q0 48 24 91t75 70.5t128 27.5q56 0 93.5 -10.5t89.5 -35.5v-108q-51 32 -88 47.5t-88 15.5q-59 0 -90 -24t-31 -63
q0 -33 17 -53.5t44.5 -33t79.5 -29.5q61 -20 101.5 -41.5t66.5 -59t26 -95.5q0 -55 -24.5 -100.5t-76 -73t-128.5 -27.5q-71 0 -119 12.5zM209 -133q24 8 32 30t7 54h83q1 -65 -34 -101.5t-88 -42.5v60z" />
    <glyph glyph-name="scommaaccent" unicode="&#x219;" horiz-adv-x="467" 
d="M132.5 -5q-36.5 10 -78.5 30v99q45 -28 82 -41.5t83 -13.5q43 0 67.5 17.5t24.5 45.5q0 27 -20 40t-62 28l-23 8q-70 17 -111.5 49t-41.5 100q0 53 28 88t70.5 51t89.5 16q48 -1 81 -11.5t72 -30.5v-90q-52 27 -78.5 37t-63.5 10q-41 0 -66 -15t-25 -42q0 -32 25 -46.5
t78 -29.5q50 -14 79.5 -27t52 -42.5t22.5 -80.5q-1 -80 -58.5 -119.5t-140.5 -39.5q-50 0 -86.5 10zM147 -133q24 8 32 30t7 54h83q1 -65 -34 -101.5t-88 -42.5v60z" />
    <glyph glyph-name="uni021B" unicode="&#x21b;" horiz-adv-x="365" 
d="M149 26.5q-44 34.5 -44 117.5v274h-81v81h81v143h102v-143h122v-81h-122v-285q0 -29 14.5 -42.5t45.5 -13.5q32 0 62 15v-84q-35 -16 -76 -16q-60 0 -104 34.5zM153 -136q24 8 32 31t8 56h70q0 -64 -32.5 -101t-77.5 -43v57z" />
    <glyph glyph-name="uni0226" unicode="&#x226;" horiz-adv-x="664" 
d="M465 181h-273l-65 -181h-110l260 667h117l253 -667h-116zM432 271l-104 286l-103 -286h207zM280 789h97v-88h-97v88z" />
    <glyph glyph-name="uni022A" unicode="&#x22a;" horiz-adv-x="727" 
d="M133 75q-80 87 -80 258q0 170 79 257.5t231 87.5q151 0 231 -86.5t80 -258.5q0 -170 -79.5 -257.5t-231.5 -87.5q-150 0 -230 87zM512.5 143.5q47.5 59.5 47.5 190.5q0 130 -48 189t-149 59t-149 -59t-48 -190t48 -190t149 -59q102 0 149.5 59.5zM235 814h101v-88h-101
v88zM399 814h100v-88h-100v88zM241 953h252v-71h-252v71z" />
    <glyph glyph-name="uni022B" unicode="&#x22b;" horiz-adv-x="578" 
d="M108.5 53q-60.5 68 -60.5 198q0 263 240 263q121 0 182 -67.5t61 -195.5t-63 -197t-179 -69q-120 0 -180.5 68zM426 251q0 88 -33 131.5t-105 43.5q-73 0 -104.5 -44.5t-31.5 -130.5t32.5 -131.5t103.5 -45.5q138 0 138 177zM162 659h101v-88h-101v88zM326 659h100v-88
h-100v88zM163 797h252v-71h-252v71z" />
    <glyph glyph-name="uni022C" unicode="&#x22c;" horiz-adv-x="727" 
d="M133 75q-80 87 -80 258q0 170 79 257.5t231 87.5q151 0 231 -86.5t80 -258.5q0 -170 -79.5 -257.5t-231.5 -87.5q-150 0 -230 87zM512.5 143.5q47.5 59.5 47.5 190.5q0 130 -48 189t-149 59t-149 -59t-48 -190t48 -190t149 -59q102 0 149.5 59.5zM216 732q-2 16 -2 24
q0 44 27.5 72.5t64.5 28.5q24 0 43.5 -9.5t43.5 -27.5q19 -14 30.5 -20.5t24.5 -6.5q14 0 22 10t8 29q0 9 -1 14h60q1 -6 1 -17q0 -45 -27.5 -73.5t-69.5 -28.5q-27 0 -48 10.5t-44 28.5q-17 13 -26.5 18.5t-19.5 5.5q-14 0 -23 -11.5t-9 -31.5q0 -10 1 -15h-56zM241 985
h252v-71h-252v71z" />
    <glyph glyph-name="uni022D" unicode="&#x22d;" horiz-adv-x="578" 
d="M108.5 53q-60.5 68 -60.5 198q0 263 240 263q121 0 182 -67.5t61 -195.5t-63 -197t-179 -69q-120 0 -180.5 68zM426 251q0 88 -33 131.5t-105 43.5q-73 0 -104.5 -44.5t-31.5 -130.5t32.5 -131.5t103.5 -45.5q138 0 138 177zM134 553q-2 16 -2 24q0 44 27.5 72.5
t64.5 28.5q24 0 43.5 -9.5t43.5 -27.5q19 -14 30.5 -20.5t24.5 -6.5q14 0 22 10t8 29q0 9 -1 14h60q1 -6 1 -17q0 -45 -27.5 -73.5t-69.5 -28.5q-27 0 -48 10.5t-44 28.5q-17 13 -26.5 18.5t-19.5 5.5q-14 0 -23 -11.5t-9 -31.5q0 -10 1 -15h-56zM163 819h252v-71h-252v71z
" />
    <glyph glyph-name="uni0230" unicode="&#x230;" horiz-adv-x="727" 
d="M133 75q-80 87 -80 258q0 170 79 257.5t231 87.5q151 0 231 -86.5t80 -258.5q0 -170 -79.5 -257.5t-231.5 -87.5q-150 0 -230 87zM512.5 143.5q47.5 59.5 47.5 190.5q0 130 -48 189t-149 59t-149 -59t-48 -190t48 -190t149 -59q102 0 149.5 59.5zM316 798h97v-88h-97v88z
M241 920h252v-71h-252v71z" />
    <glyph glyph-name="uni0231" unicode="&#x231;" horiz-adv-x="578" 
d="M108.5 53q-60.5 68 -60.5 198q0 263 240 263q121 0 182 -67.5t61 -195.5t-63 -197t-179 -69q-120 0 -180.5 68zM426 251q0 88 -33 131.5t-105 43.5q-73 0 -104.5 -44.5t-31.5 -130.5t32.5 -131.5t103.5 -45.5q138 0 138 177zM238 656h97v-88h-97v88zM163 797h252v-71
h-252v71z" />
    <glyph glyph-name="uni0232" unicode="&#x232;" horiz-adv-x="638" 
d="M377 298v-298h-110v299l-251 368h135l178 -277l171 277h119zM205 785h252v-71h-252v71z" />
    <glyph glyph-name="uni0233" unicode="&#x233;" horiz-adv-x="563" 
d="M532 502l-207 -533q-64 -163 -173 -163q-39 0 -66 12v90q25 -10 50 -10q39 0 61.5 26t38.5 79l-205 499h119l137 -375l136 375h109zM157 637h252v-71h-252v71z" />
    <glyph glyph-name="uni0237" unicode="&#x237;" horiz-adv-x="275" 
d="M3 -109q53 1 74.5 21.5t21.5 67.5v519h102v-517q0 -175 -198 -175v84z" />
    <glyph glyph-name="uni0259" unicode="&#x259;" horiz-adv-x="553" 
d="M440.5 445.5q64.5 -68.5 64.5 -194.5q0 -129 -61 -197.5t-172 -68.5q-117 0 -171.5 75.5t-53.5 211.5h352q-5 74 -43 112.5t-110 38.5q-46 0 -88 -11.5t-74 -29.5v98q78 34 179 34q113 0 177.5 -68.5zM358 99q30 28 39 95h-243q7 -64 36 -93.5t85 -29.5q53 0 83 28z" />
    <glyph glyph-name="uni0272" unicode="&#x272;" horiz-adv-x="586" 
d="M74 461q45 23 109.5 37.5t123.5 14.5q105 0 155 -44t50 -137v-332h-105v318q0 105 -119 105q-57 0 -109 -19v-402q0 -175 -197 -175v90q52 -1 72 20t20 67v457z" />
    <glyph glyph-name="circumflex" unicode="&#x2c6;" horiz-adv-x="410" 
d="M165 685h87l83 -121h-69l-58 65l-58 -65h-69z" />
    <glyph glyph-name="caron" unicode="&#x2c7;" horiz-adv-x="412" 
d="M88 685h73l44 -66l44 66h73l-77 -121h-76z" />
    <glyph glyph-name="uni02C9" unicode="&#x2c9;" horiz-adv-x="400" 
d="M75 681h252v-71h-252v71z" />
    <glyph glyph-name="breve" unicode="&#x2d8;" horiz-adv-x="436" 
d="M124 574q-36 32 -48 90h65q10 -27 29.5 -43.5t47.5 -16.5q53 0 76 60h65q-8 -57 -45.5 -89.5t-95.5 -32.5t-94 32z" />
    <glyph glyph-name="dotaccent" unicode="&#x2d9;" horiz-adv-x="298" 
d="M103 647h97v-88h-97v88z" />
    <glyph glyph-name="ring" unicode="&#x2da;" horiz-adv-x="409" 
d="M116.5 558q-26.5 23 -26.5 70t26.5 70t82.5 23q109 0 109 -93t-109 -93q-56 0 -82.5 23zM239 594.5q11 9.5 11 33.5t-11 33.5t-40 9.5q-30 0 -41 -9.5t-11 -33.5t11 -33.5t41 -9.5q29 0 40 9.5z" />
    <glyph glyph-name="ogonek" unicode="&#x2db;" horiz-adv-x="353" 
d="M101 -156.5q-27 22.5 -27 65.5q0 30 24.5 58t67.5 45l86 -12q-94 -43 -94 -82q0 -19 8.5 -26.5t25.5 -7.5q28 0 60 30v-73q-17 -9 -33.5 -14.5t-40.5 -5.5q-50 0 -77 22.5z" />
    <glyph glyph-name="tilde" unicode="&#x2dc;" horiz-adv-x="429" 
d="M57 538q-2 16 -2 24q0 44 27.5 72.5t64.5 28.5q25 0 44 -9.5t43 -27.5q19 -14 30.5 -20.5t24.5 -6.5q14 0 22 10t8 29q0 9 -1 14h60q1 -6 1 -17q0 -45 -27.5 -73.5t-69.5 -28.5q-27 0 -48 10.5t-44 28.5q-17 13 -26.5 18.5t-19.5 5.5q-14 0 -23 -11.5t-9 -31.5
q0 -10 1 -15h-56z" />
    <glyph glyph-name="hungarumlaut" unicode="&#x2dd;" horiz-adv-x="388" 
d="M119 677h86l-86 -115h-59zM248 677h87l-86 -115h-60z" />
    <glyph glyph-name="gravecomb" unicode="&#x300;" 
d="M-198 677h104l53 -118h-62z" />
    <glyph glyph-name="acutecomb" unicode="&#x301;" 
d="M-134 677h105l-95 -118h-62z" />
    <glyph glyph-name="uni0302" unicode="&#x302;" 
d="M-245 685h87l83 -121h-69l-58 65l-58 -65h-69z" />
    <glyph glyph-name="tildecomb" unicode="&#x303;" 
d="M-372 544q-2 16 -2 24q0 44 27.5 72.5t64.5 28.5q24 0 43.5 -9.5t43.5 -27.5q19 -14 30.5 -20.5t24.5 -6.5q14 0 22 10t8 29q0 9 -1 14h60q1 -6 1 -17q0 -45 -27.5 -73.5t-69.5 -28.5q-27 0 -48 10.5t-44 28.5q-17 13 -26.5 18.5t-19.5 5.5q-14 0 -23 -11.5t-9 -31.5
q0 -10 1 -15h-56z" />
    <glyph glyph-name="uni0304" unicode="&#x304;" 
d="M-328 637h252v-71h-252v71z" />
    <glyph glyph-name="uni0306" unicode="&#x306;" 
d="M-312 574q-36 32 -48 90h65q10 -27 29.5 -43.5t47.5 -16.5q53 0 76 60h65q-8 -57 -45.5 -89.5t-95.5 -32.5t-94 32z" />
    <glyph glyph-name="uni0307" unicode="&#x307;" 
d="M-201 647h97v-88h-97v88z" />
    <glyph glyph-name="uni0308" unicode="&#x308;" 
d="M-331 650h101v-88h-101v88zM-167 650h100v-88h-100v88z" />
    <glyph glyph-name="hookabovecomb" unicode="&#x309;" 
d="M-146 608q17 0 27 7.5t10 16.5q0 25 -46 25q-13 0 -28 -3v50q15 3 43 3q43 0 72 -17t29 -55q0 -24 -14 -39t-41 -19v-23h-52v54z" />
    <glyph glyph-name="uni030A" unicode="&#x30a;" 
d="M-292.5 558q-26.5 23 -26.5 70t26.5 70t82.5 23q109 0 109 -93t-109 -93q-56 0 -82.5 23zM-170 594.5q11 9.5 11 33.5t-11 33.5t-40 9.5q-30 0 -41 -9.5t-11 -33.5t11 -33.5t41 -9.5q29 0 40 9.5z" />
    <glyph glyph-name="uni030B" unicode="&#x30b;" 
d="M-269 677h86l-86 -115h-59zM-140 677h87l-86 -115h-60z" />
    <glyph glyph-name="uni030C" unicode="&#x30c;" 
d="M-324 685h73l44 -66l44 66h73l-77 -121h-76z" />
    <glyph glyph-name="uni030F" unicode="&#x30f;" 
d="M-348 677h104l53 -118h-62zM-193 677h104l53 -118h-62z" />
    <glyph glyph-name="uni0311" unicode="&#x311;" 
d="M-122.5 620.5q37.5 -32.5 45.5 -89.5h-65q-23 60 -76 60q-28 0 -47.5 -16.5t-29.5 -43.5h-65q12 58 48 90t94 32t95.5 -32.5z" />
    <glyph glyph-name="uni031B" unicode="&#x31b;" 
d="M-250 488q31 0 53 17t22 42v31h69v-40q0 -55 -40 -84.5t-101 -30.5z" />
    <glyph glyph-name="dotbelowcmb" unicode="&#x323;" 
d="M-141 -50h91v-88h-91v88z" />
    <glyph glyph-name="uni0324" unicode="&#x324;" 
d="M-331 -41h101v-88h-101v88zM-167 -41h100v-88h-100v88z" />
    <glyph glyph-name="uni0326" unicode="&#x326;" 
d="M-195 -133q24 8 32 30t7 54h83q1 -65 -34 -101.5t-88 -42.5v60z" />
    <glyph glyph-name="uni0327" unicode="&#x327;" 
d="M-126 -5h74l-58 -121h-101z" />
    <glyph glyph-name="uni0328" unicode="&#x328;" 
d="M-252 -156.5q-27 22.5 -27 65.5q0 30 24.5 58t67.5 45l86 -12q-94 -43 -94 -82q0 -19 8.5 -26.5t25.5 -7.5q28 0 60 30v-73q-17 -9 -33.5 -14.5t-40.5 -5.5q-50 0 -77 22.5z" />
    <glyph glyph-name="uni032E" unicode="&#x32e;" 
d="M-312 -111q-36 32 -48 90h65q10 -27 29.5 -43.5t47.5 -16.5q53 0 76 60h65q-8 -57 -45.5 -89.5t-95.5 -32.5t-94 32z" />
    <glyph glyph-name="uni0331" unicode="&#x331;" 
d="M-328 -59h252v-71h-252v71z" />
    <glyph glyph-name="uni0335" unicode="&#x335;" 
d="M-320 320h268v-70h-268v70z" />
    <glyph glyph-name="pi" unicode="&#x3c0;" horiz-adv-x="626" 
d="M139 415h-105v84h557v-84h-105v-415h-84v415h-179v-415h-84v415z" />
    <glyph glyph-name="uni1E09" unicode="&#x1e09;" horiz-adv-x="496" 
d="M303 565h-62l52 118h105zM449 22q-56 -25 -121 -31l-56 -117h-101l83 118q-91 11 -148.5 72.5t-57.5 183.5q0 140 69.5 202.5t176.5 62.5q81 0 154 -30v-94q-76 32 -139 32q-79 0 -118 -39.5t-39 -125.5q0 -90 38 -131.5t122 -41.5q68 0 137 33v-94z" />
    <glyph glyph-name="uni1E0F" unicode="&#x1e0f;" horiz-adv-x="586" 
d="M512 712v-606q0 -40 -33 -67.5t-83 -40.5t-103 -13q-107 0 -176 60.5t-69 211.5q0 121 59 189t175 68q27 0 62.5 -7t63.5 -21v226h104zM408 395q-24 14 -53.5 21.5t-57.5 7.5q-142 0 -142 -169q0 -84 32 -131.5t112 -47.5q46 0 77.5 11t31.5 29v279zM178 -59h252v-71
h-252v71z" />
    <glyph glyph-name="uni1E14" unicode="&#x1e14;" horiz-adv-x="586" 
d="M79 667h437v-93h-326v-193h284v-94h-285v-194h327v-93h-437v667zM178 785h252v-71h-252v71zM191 948h99l52 -114h-62z" />
    <glyph glyph-name="uni1E15" unicode="&#x1e15;" horiz-adv-x="553" 
d="M452.5 438.5q54.5 -75.5 53.5 -211.5h-352q5 -74 43.5 -112.5t109.5 -38.5q46 0 88 11.5t74 29.5v-98q-78 -34 -179 -34q-113 0 -177.5 68.5t-64.5 194.5q0 129 61 197.5t172 68.5q117 0 171.5 -75.5zM195 400q-30 -28 -39 -95h243q-7 64 -36 93.5t-85 29.5
q-53 0 -83 -28zM157 643h252v-71h-252v71zM161 818h104l53 -118h-62z" />
    <glyph glyph-name="uni1E16" unicode="&#x1e16;" horiz-adv-x="586" 
d="M79 667h437v-93h-326v-193h284v-94h-285v-194h327v-93h-437v667zM178 785h252v-71h-252v71zM328 956h109l-98 -114h-59z" />
    <glyph glyph-name="uni1E17" unicode="&#x1e17;" horiz-adv-x="553" 
d="M452.5 438.5q54.5 -75.5 53.5 -211.5h-352q5 -74 43.5 -112.5t109.5 -38.5q46 0 88 11.5t74 29.5v-98q-78 -34 -179 -34q-113 0 -177.5 68.5t-64.5 194.5q0 129 61 197.5t172 68.5q117 0 171.5 -75.5zM195 400q-30 -28 -39 -95h243q-7 64 -36 93.5t-85 29.5
q-53 0 -83 -28zM157 643h252v-71h-252v71zM302 818h105l-95 -118h-62z" />
    <glyph glyph-name="uni1E1C" unicode="&#x1e1c;" horiz-adv-x="586" 
d="M213 729q-36 32 -48 90h65q10 -27 29.5 -43.5t47.5 -16.5q53 0 76 60h65q-8 -57 -45.5 -89.5t-95.5 -32.5t-94 32zM190 574v-193h284v-94h-285v-194h327v-93h-167l-55 -115h-101l81 115h-195v667h437v-93h-326z" />
    <glyph glyph-name="uni1E1D" unicode="&#x1e1d;" horiz-adv-x="553" 
d="M192 580q-36 32 -48 90h65q10 -27 29.5 -43.5t47.5 -16.5q53 0 76 60h65q-8 -57 -45.5 -89.5t-95.5 -32.5t-94 32zM452.5 438.5q54.5 -75.5 53.5 -211.5h-352q5 -74 43.5 -112.5t109.5 -38.5q46 0 88 11.5t74 29.5v-98q-47 -20 -103 -29l-56 -116h-101l78 111
q-111 1 -175 69.5t-64 193.5q0 129 61 197.5t172 68.5q117 0 171.5 -75.5zM195 400q-30 -28 -39 -95h243q-7 64 -36 93.5t-85 29.5q-53 0 -83 -28z" />
    <glyph glyph-name="uni1E1E" unicode="&#x1e1e;" horiz-adv-x="549" 
d="M79 667h428v-93h-318v-199h278v-94h-278v-281h-110v667zM222 788h97v-88h-97v88z" />
    <glyph glyph-name="uni1E20" unicode="&#x1e20;" horiz-adv-x="695" 
d="M134 74q-81 86 -81 260q0 173 81 258.5t234 85.5q119 0 223 -46v-106q-61 29 -110 44.5t-99 15.5q-111 0 -164.5 -60t-53.5 -192t53.5 -192t161.5 -60q73 0 127 20v159h-140v94h250v-306q-117 -61 -247 -61q-154 0 -235 86zM239 791h252v-71h-252v71z" />
    <glyph glyph-name="uni1E21" unicode="&#x1e21;" horiz-adv-x="579" 
d="M452.5 480q55.5 -33 55.5 -97v-398q0 -86 -56 -140t-178 -54q-89 0 -162 27v96q83 -31 154 -31q80 0 109 28.5t29 75.5v34q-29 -16 -63.5 -26t-67.5 -10q-110 2 -167.5 67t-57.5 185q0 156 72 216t192 60q85 0 140.5 -33zM189 116.5q34 -45.5 101 -45.5q65 0 114 29v263
q0 35 -26.5 48t-71.5 13q-85 0 -118 -49t-33 -135q0 -78 34 -123.5zM190 646h252v-71h-252v71z" />
    <glyph glyph-name="uni1E2A" unicode="&#x1e2a;" horiz-adv-x="687" 
d="M79 667h110v-287h308v287h111v-667h-111v284h-308v-284h-110v667zM251 -123q-36 32 -48 90h65q10 -27 29.5 -43.5t47.5 -16.5q53 0 76 60h65q-8 -57 -45.5 -89.5t-95.5 -32.5t-94 32z" />
    <glyph glyph-name="uni1E2B" unicode="&#x1e2b;" horiz-adv-x="591" 
d="M517 311v-311h-105v298q0 61 -29 93t-86 32q-61 0 -118 -33l-1 -390h-104v714h105v-242q75 41 148 41q190 0 190 -202zM198 -120q-36 32 -48 90h65q10 -27 29.5 -43.5t47.5 -16.5q53 0 76 60h65q-8 -57 -45.5 -89.5t-95.5 -32.5t-94 32z" />
    <glyph glyph-name="uni1E2E" unicode="&#x1e2e;" horiz-adv-x="269" 
d="M79 667h111v-667h-111v667zM3 805h101v-88h-101v88zM167 805h100v-88h-100v88zM159 999h109l-98 -114h-59z" />
    <glyph glyph-name="uni1E2F" unicode="&#x1e2f;" horiz-adv-x="254" 
d="M74 499h105l1 -499h-106v499zM-2 650h101v-88h-101v88zM162 650h100v-88h-100v88zM144 828h105l-95 -118h-62z" />
    <glyph glyph-name="uni1E36" unicode="&#x1e36;" horiz-adv-x="537" 
d="M79 667h111v-573h319v-94h-430v667zM228 -50h91v-88h-91v88z" />
    <glyph glyph-name="uni1E37" unicode="&#x1e37;" horiz-adv-x="252" 
d="M74 0v692h104v-692h-104zM80 -50h91v-88h-91v88z" />
    <glyph glyph-name="uni1E3A" unicode="&#x1e3a;" horiz-adv-x="537" 
d="M79 667h111v-573h319v-94h-430v667zM146 -59h252v-71h-252v71z" />
    <glyph glyph-name="uni1E3B" unicode="&#x1e3b;" horiz-adv-x="252" 
d="M74 0v692h104v-692h-104zM-1 -59h252v-71h-252v71z" />
    <glyph glyph-name="uni1E42" unicode="&#x1e42;" horiz-adv-x="811" 
d="M732 667v-667h-110v509l-223 -308l-213 306v-507h-107v667h115l210 -310l215 310h113zM360 -50h91v-88h-91v88z" />
    <glyph glyph-name="uni1E43" unicode="&#x1e43;" horiz-adv-x="897" 
d="M774.5 469q48.5 -44 48.5 -137v-332h-105v318q0 105 -119 105q-53 0 -97 -27q7 -27 7 -64v-332h-105v318q0 105 -119 105q-54 0 -106 -19v-404h-105v461q45 23 109.5 37.5t123.5 14.5q98 0 146 -38q81 38 168 38q105 0 153.5 -44zM403 -50h91v-88h-91v88z" />
    <glyph glyph-name="uni1E45" unicode="&#x1e45;" horiz-adv-x="586" 
d="M183.5 498.5q64.5 14.5 123.5 14.5q105 0 155 -44t50 -137v-332h-105v318q0 105 -119 105q-57 0 -109 -19v-404h-105v461q45 23 109.5 37.5zM241 653h97v-88h-97v88z" />
    <glyph glyph-name="uni1E46" unicode="&#x1e46;" horiz-adv-x="723" 
d="M644 667v-667h-99l-361 496v-496h-105v667h106l354 -490v490h105zM316 -50h91v-88h-91v88z" />
    <glyph glyph-name="uni1E47" unicode="&#x1e47;" horiz-adv-x="586" 
d="M183.5 498.5q64.5 14.5 123.5 14.5q105 0 155 -44t50 -137v-332h-105v318q0 105 -119 105q-57 0 -109 -19v-404h-105v461q45 23 109.5 37.5zM248 -50h91v-88h-91v88z" />
    <glyph glyph-name="uni1E48" unicode="&#x1e48;" horiz-adv-x="723" 
d="M644 667v-667h-99l-361 496v-496h-105v667h106l354 -490v490h105zM234 -59h252v-71h-252v71z" />
    <glyph glyph-name="uni1E49" unicode="&#x1e49;" horiz-adv-x="586" 
d="M183.5 498.5q64.5 14.5 123.5 14.5q105 0 155 -44t50 -137v-332h-105v318q0 105 -119 105q-57 0 -109 -19v-404h-105v461q45 23 109.5 37.5zM168 -59h252v-71h-252v71z" />
    <glyph glyph-name="uni1E4C" unicode="&#x1e4c;" horiz-adv-x="727" 
d="M133 75q-80 87 -80 258q0 170 79 257.5t231 87.5q151 0 231 -86.5t80 -258.5q0 -170 -79.5 -257.5t-231.5 -87.5q-150 0 -230 87zM512.5 143.5q47.5 59.5 47.5 190.5q0 130 -48 189t-149 59t-149 -59t-48 -190t48 -190t149 -59q102 0 149.5 59.5zM216 732q-2 16 -2 24
q0 44 27.5 72.5t64.5 28.5q24 0 43.5 -9.5t43.5 -27.5q19 -14 30.5 -20.5t24.5 -6.5q14 0 22 10t8 29q0 9 -1 14h60q1 -6 1 -17q0 -45 -27.5 -73.5t-69.5 -28.5q-27 0 -48 10.5t-44 28.5q-17 13 -26.5 18.5t-19.5 5.5q-14 0 -23 -11.5t-9 -31.5q0 -10 1 -15h-56zM391 1041
h109l-98 -114h-59z" />
    <glyph glyph-name="uni1E4D" unicode="&#x1e4d;" horiz-adv-x="578" 
d="M108.5 53q-60.5 68 -60.5 198q0 263 240 263q121 0 182 -67.5t61 -195.5t-63 -197t-179 -69q-120 0 -180.5 68zM426 251q0 88 -33 131.5t-105 43.5q-73 0 -104.5 -44.5t-31.5 -130.5t32.5 -131.5t103.5 -45.5q138 0 138 177zM134 553q-2 16 -2 24q0 44 27.5 72.5
t64.5 28.5q24 0 43.5 -9.5t43.5 -27.5q19 -14 30.5 -20.5t24.5 -6.5q14 0 22 10t8 29q0 9 -1 14h60q1 -6 1 -17q0 -45 -27.5 -73.5t-69.5 -28.5q-27 0 -48 10.5t-44 28.5q-17 13 -26.5 18.5t-19.5 5.5q-14 0 -23 -11.5t-9 -31.5q0 -10 1 -15h-56zM308 859h105l-95 -118h-62z
" />
    <glyph glyph-name="uni1E4E" unicode="&#x1e4e;" horiz-adv-x="727" 
d="M133 75q-80 87 -80 258q0 170 79 257.5t231 87.5q151 0 231 -86.5t80 -258.5q0 -170 -79.5 -257.5t-231.5 -87.5q-150 0 -230 87zM512.5 143.5q47.5 59.5 47.5 190.5q0 130 -48 189t-149 59t-149 -59t-48 -190t48 -190t149 -59q102 0 149.5 59.5zM216 732q-2 16 -2 24
q0 44 27.5 72.5t64.5 28.5q24 0 43.5 -9.5t43.5 -27.5q19 -14 30.5 -20.5t24.5 -6.5q14 0 22 10t8 29q0 9 -1 14h60q1 -6 1 -17q0 -45 -27.5 -73.5t-69.5 -28.5q-27 0 -48 10.5t-44 28.5q-17 13 -26.5 18.5t-19.5 5.5q-14 0 -23 -11.5t-9 -31.5q0 -10 1 -15h-56zM235 1004
h101v-88h-101v88zM399 1004h100v-88h-100v88z" />
    <glyph glyph-name="uni1E4F" unicode="&#x1e4f;" horiz-adv-x="578" 
d="M108.5 53q-60.5 68 -60.5 198q0 263 240 263q121 0 182 -67.5t61 -195.5t-63 -197t-179 -69q-120 0 -180.5 68zM426 251q0 88 -33 131.5t-105 43.5q-73 0 -104.5 -44.5t-31.5 -130.5t32.5 -131.5t103.5 -45.5q138 0 138 177zM134 553q-2 16 -2 24q0 44 27.5 72.5
t64.5 28.5q24 0 43.5 -9.5t43.5 -27.5q19 -14 30.5 -20.5t24.5 -6.5q14 0 22 10t8 29q0 9 -1 14h60q1 -6 1 -17q0 -45 -27.5 -73.5t-69.5 -28.5q-27 0 -48 10.5t-44 28.5q-17 13 -26.5 18.5t-19.5 5.5q-14 0 -23 -11.5t-9 -31.5q0 -10 1 -15h-56zM162 832h101v-88h-101v88z
M326 832h100v-88h-100v88z" />
    <glyph glyph-name="uni1E50" unicode="&#x1e50;" horiz-adv-x="727" 
d="M133 75q-80 87 -80 258q0 170 79 257.5t231 87.5q151 0 231 -86.5t80 -258.5q0 -170 -79.5 -257.5t-231.5 -87.5q-150 0 -230 87zM512.5 143.5q47.5 59.5 47.5 190.5q0 130 -48 189t-149 59t-149 -59t-48 -190t48 -190t149 -59q102 0 149.5 59.5zM241 794h252v-71h-252
v71zM254 957h99l52 -114h-62z" />
    <glyph glyph-name="uni1E51" unicode="&#x1e51;" horiz-adv-x="578" 
d="M108.5 53q-60.5 68 -60.5 198q0 263 240 263q121 0 182 -67.5t61 -195.5t-63 -197t-179 -69q-120 0 -180.5 68zM426 251q0 88 -33 131.5t-105 43.5q-73 0 -104.5 -44.5t-31.5 -130.5t32.5 -131.5t103.5 -45.5q138 0 138 177zM163 646h252v-71h-252v71zM167 821h104
l53 -118h-62z" />
    <glyph glyph-name="uni1E52" unicode="&#x1e52;" horiz-adv-x="727" 
d="M133 75q-80 87 -80 258q0 170 79 257.5t231 87.5q151 0 231 -86.5t80 -258.5q0 -170 -79.5 -257.5t-231.5 -87.5q-150 0 -230 87zM512.5 143.5q47.5 59.5 47.5 190.5q0 130 -48 189t-149 59t-149 -59t-48 -190t48 -190t149 -59q102 0 149.5 59.5zM241 794h252v-71h-252
v71zM391 965h109l-98 -114h-59z" />
    <glyph glyph-name="uni1E53" unicode="&#x1e53;" horiz-adv-x="578" 
d="M108.5 53q-60.5 68 -60.5 198q0 263 240 263q121 0 182 -67.5t61 -195.5t-63 -197t-179 -69q-120 0 -180.5 68zM426 251q0 88 -33 131.5t-105 43.5q-73 0 -104.5 -44.5t-31.5 -130.5t32.5 -131.5t103.5 -45.5q138 0 138 177zM163 646h252v-71h-252v71zM308 821h105
l-95 -118h-62z" />
    <glyph glyph-name="uni1E5E" unicode="&#x1e5e;" horiz-adv-x="665" 
d="M486 0l-156 252h-141v-252h-110v667h296q105 0 160.5 -50.5t55.5 -150.5q0 -72 -39.5 -126t-106.5 -69l178 -271h-137zM189 342h155q66 0 98.5 29t32.5 88q0 57 -26.5 86t-86.5 29h-173v-232zM205 -59h252v-71h-252v71z" />
    <glyph glyph-name="uni1E5F" unicode="&#x1e5f;" horiz-adv-x="399" 
d="M74 456q28 17 95 37t133 20q40 0 68 -13v-84q-28 4 -67 4q-66 0 -124 -10v-410h-105v456zM-17 -59h252v-71h-252v71z" />
    <glyph glyph-name="uni1E60" unicode="&#x1e60;" horiz-adv-x="564" 
d="M164 0.5q-48 12.5 -102 40.5v110q39 -32 95.5 -51.5t118.5 -19.5q61 0 92 25t31 71q0 31 -18 51t-45 33t-76 31l-22 8q-55 19 -90.5 39t-59.5 57t-24 95q0 48 24 91t75 70.5t128 27.5q56 0 93.5 -10.5t89.5 -35.5v-108q-51 32 -88 47.5t-88 15.5q-59 0 -90 -24t-31 -63
q0 -33 17 -53.5t44.5 -33t79.5 -29.5q61 -20 101.5 -41.5t66.5 -59t26 -95.5q0 -55 -24.5 -100.5t-76 -73t-128.5 -27.5q-71 0 -119 12.5zM237 798h97v-88h-97v88z" />
    <glyph glyph-name="uni1E61" unicode="&#x1e61;" horiz-adv-x="467" 
d="M132.5 -5q-36.5 10 -78.5 30v99q45 -28 82 -41.5t83 -13.5q43 0 67.5 17.5t24.5 45.5q0 27 -20 40t-62 28l-23 8q-70 17 -111.5 49t-41.5 100q0 53 28 88t70.5 51t89.5 16q48 -1 81 -11.5t72 -30.5v-90q-52 27 -78.5 37t-63.5 10q-41 0 -66 -15t-25 -42q0 -32 25 -46.5
t78 -29.5q50 -14 79.5 -27t52 -42.5t22.5 -80.5q-1 -80 -58.5 -119.5t-140.5 -39.5q-50 0 -86.5 10zM183 653h97v-88h-97v88z" />
    <glyph glyph-name="uni1E62" unicode="&#x1e62;" horiz-adv-x="564" 
d="M164 0.5q-48 12.5 -102 40.5v110q39 -32 95.5 -51.5t118.5 -19.5q61 0 92 25t31 71q0 31 -18 51t-45 33t-76 31l-22 8q-55 19 -90.5 39t-59.5 57t-24 95q0 48 24 91t75 70.5t128 27.5q56 0 93.5 -10.5t89.5 -35.5v-108q-51 32 -88 47.5t-88 15.5q-59 0 -90 -24t-31 -63
q0 -33 17 -53.5t44.5 -33t79.5 -29.5q61 -20 101.5 -41.5t66.5 -59t26 -95.5q0 -55 -24.5 -100.5t-76 -73t-128.5 -27.5q-71 0 -119 12.5zM227 -50h91v-88h-91v88z" />
    <glyph glyph-name="uni1E63" unicode="&#x1e63;" horiz-adv-x="467" 
d="M132.5 -5q-36.5 10 -78.5 30v99q45 -28 82 -41.5t83 -13.5q43 0 67.5 17.5t24.5 45.5q0 27 -20 40t-62 28l-23 8q-70 17 -111.5 49t-41.5 100q0 53 28 88t70.5 51t89.5 16q48 -1 81 -11.5t72 -30.5v-90q-52 27 -78.5 37t-63.5 10q-41 0 -66 -15t-25 -42q0 -32 25 -46.5
t78 -29.5q50 -14 79.5 -27t52 -42.5t22.5 -80.5q-1 -80 -58.5 -119.5t-140.5 -39.5q-50 0 -86.5 10zM165 -50h91v-88h-91v88z" />
    <glyph glyph-name="uni1E64" unicode="&#x1e64;" horiz-adv-x="564" 
d="M164 0.5q-48 12.5 -102 40.5v110q39 -32 95.5 -51.5t118.5 -19.5q61 0 92 25t31 71q0 31 -18 51t-45 33t-76 31l-22 8q-55 19 -90.5 39t-59.5 57t-24 95q0 48 24 91t75 70.5t128 27.5q56 0 93.5 -10.5t89.5 -35.5v-108q-51 32 -88 47.5t-88 15.5q-59 0 -90 -24t-31 -63
q0 -33 17 -53.5t44.5 -33t79.5 -29.5q61 -20 101.5 -41.5t66.5 -59t26 -95.5q0 -55 -24.5 -100.5t-76 -73t-128.5 -27.5q-71 0 -119 12.5zM346 850h109l-98 -114h-59zM177 827h97v-88h-97v88z" />
    <glyph glyph-name="uni1E65" unicode="&#x1e65;" horiz-adv-x="467" 
d="M132.5 -5q-36.5 10 -78.5 30v99q45 -28 82 -41.5t83 -13.5q43 0 67.5 17.5t24.5 45.5q0 27 -20 40t-62 28l-23 8q-70 17 -111.5 49t-41.5 100q0 53 28 88t70.5 51t89.5 16q48 -1 81 -11.5t72 -30.5v-90q-52 27 -78.5 37t-63.5 10q-41 0 -66 -15t-25 -42q0 -32 25 -46.5
t78 -29.5q50 -14 79.5 -27t52 -42.5t22.5 -80.5q-1 -80 -58.5 -119.5t-140.5 -39.5q-50 0 -86.5 10zM253 683h105l-95 -118h-62zM220 831h97v-88h-97v88z" />
    <glyph glyph-name="uni1E66" unicode="&#x1e66;" horiz-adv-x="564" 
d="M164 0.5q-48 12.5 -102 40.5v110q39 -32 95.5 -51.5t118.5 -19.5q61 0 92 25t31 71q0 31 -18 51t-45 33t-76 31l-22 8q-55 19 -90.5 39t-59.5 57t-24 95q0 48 24 91t75 70.5t128 27.5q56 0 93.5 -10.5t89.5 -35.5v-108q-51 32 -88 47.5t-88 15.5q-59 0 -90 -24t-31 -63
q0 -33 17 -53.5t44.5 -33t79.5 -29.5q61 -20 101.5 -41.5t66.5 -59t26 -95.5q0 -55 -24.5 -100.5t-76 -73t-128.5 -27.5q-71 0 -119 12.5zM172 833h73l44 -66l44 66h73l-77 -121h-76zM239 958h97v-88h-97v88z" />
    <glyph glyph-name="uni1E67" unicode="&#x1e67;" horiz-adv-x="467" 
d="M132.5 -5q-36.5 10 -78.5 30v99q45 -28 82 -41.5t83 -13.5q43 0 67.5 17.5t24.5 45.5q0 27 -20 40t-62 28l-23 8q-70 17 -111.5 49t-41.5 100q0 53 28 88t70.5 51t89.5 16q48 -1 81 -11.5t72 -30.5v-90q-52 27 -78.5 37t-63.5 10q-41 0 -66 -15t-25 -42q0 -32 25 -46.5
t78 -29.5q50 -14 79.5 -27t52 -42.5t22.5 -80.5q-1 -80 -58.5 -119.5t-140.5 -39.5q-50 0 -86.5 10zM118 691h73l44 -66l44 66h73l-77 -121h-76zM183 836h97v-88h-97v88z" />
    <glyph glyph-name="uni1E68" unicode="&#x1e68;" horiz-adv-x="564" 
d="M164 0.5q-48 12.5 -102 40.5v110q39 -32 95.5 -51.5t118.5 -19.5q61 0 92 25t31 71q0 31 -18 51t-45 33t-76 31l-22 8q-55 19 -90.5 39t-59.5 57t-24 95q0 48 24 91t75 70.5t128 27.5q56 0 93.5 -10.5t89.5 -35.5v-108q-51 32 -88 47.5t-88 15.5q-59 0 -90 -24t-31 -63
q0 -33 17 -53.5t44.5 -33t79.5 -29.5q61 -20 101.5 -41.5t66.5 -59t26 -95.5q0 -55 -24.5 -100.5t-76 -73t-128.5 -27.5q-71 0 -119 12.5zM227 -50h91v-88h-91v88zM237 798h97v-88h-97v88z" />
    <glyph glyph-name="uni1E69" unicode="&#x1e69;" horiz-adv-x="467" 
d="M132.5 -5q-36.5 10 -78.5 30v99q45 -28 82 -41.5t83 -13.5q43 0 67.5 17.5t24.5 45.5q0 27 -20 40t-62 28l-23 8q-70 17 -111.5 49t-41.5 100q0 53 28 88t70.5 51t89.5 16q48 -1 81 -11.5t72 -30.5v-90q-52 27 -78.5 37t-63.5 10q-41 0 -66 -15t-25 -42q0 -32 25 -46.5
t78 -29.5q50 -14 79.5 -27t52 -42.5t22.5 -80.5q-1 -80 -58.5 -119.5t-140.5 -39.5q-50 0 -86.5 10zM165 -50h91v-88h-91v88zM183 653h97v-88h-97v88z" />
    <glyph glyph-name="uni1E6D" unicode="&#x1e6d;" horiz-adv-x="384" 
d="M145 24q-39 37 -39 105v286h-81v87h81v140h108v-140h122v-87h-122v-265q0 -37 13 -53.5t46 -16.5q16 0 33.5 4.5t29.5 11.5v-93q-35 -16 -83 -16q-69 0 -108 37zM141 -50h91v-88h-91v88z" />
    <glyph glyph-name="uni1E6E" unicode="&#x1e6e;" horiz-adv-x="585" 
d="M237 574h-215v93h541v-93h-216v-574h-110v574zM165 -59h252v-71h-252v71z" />
    <glyph glyph-name="uni1E6F" unicode="&#x1e6f;" horiz-adv-x="384" 
d="M145 24q-39 37 -39 105v286h-81v87h81v140h108v-140h122v-87h-122v-265q0 -37 13 -53.5t46 -16.5q16 0 33.5 4.5t29.5 11.5v-93q-35 -16 -83 -16q-69 0 -108 37zM60 -59h252v-71h-252v71z" />
    <glyph glyph-name="uni1E78" unicode="&#x1e78;" horiz-adv-x="706" 
d="M151 55q-72 70 -72 207v405h113v-404q0 -94 41 -139.5t123 -45.5q165 0 165 185v404h106v-405q0 -135 -71 -206t-196 -71q-137 0 -209 70zM200 726q-2 16 -2 24q0 44 27.5 72.5t64.5 28.5q24 0 43.5 -9.5t43.5 -27.5q19 -14 30.5 -20.5t24.5 -6.5q14 0 22 10t8 29
q0 9 -1 14h60q1 -6 1 -17q0 -45 -27.5 -73.5t-69.5 -28.5q-27 0 -48 10.5t-44 28.5q-17 13 -26.5 18.5t-19.5 5.5q-14 0 -23 -11.5t-9 -31.5q0 -10 1 -15h-56zM375 1035h109l-98 -114h-59z" />
    <glyph glyph-name="uni1E79" unicode="&#x1e79;" horiz-adv-x="588" 
d="M132.5 36.5q-58.5 51.5 -58.5 150.5v315h105v-300q0 -64 28.5 -94.5t88.5 -30.5t88.5 30.5t28.5 94.5v300h101v-315q0 -99 -57 -150.5t-161 -51.5q-105 0 -163.5 51.5zM140 550q-2 16 -2 24q0 44 27.5 72.5t64.5 28.5q24 0 43.5 -9.5t43.5 -27.5q19 -14 30.5 -20.5
t24.5 -6.5q14 0 22 10t8 29q0 9 -1 14h60q1 -6 1 -17q0 -45 -27.5 -73.5t-69.5 -28.5q-27 0 -48 10.5t-44 28.5q-17 13 -26.5 18.5t-19.5 5.5q-14 0 -23 -11.5t-9 -31.5q0 -10 1 -15h-56zM314 856h105l-95 -118h-62z" />
    <glyph glyph-name="uni1E7A" unicode="&#x1e7a;" horiz-adv-x="706" 
d="M151 55q-72 70 -72 207v405h113v-404q0 -94 41 -139.5t123 -45.5q165 0 165 185v404h106v-405q0 -135 -71 -206t-196 -71q-137 0 -209 70zM225 788h252v-71h-252v71zM219 923h101v-88h-101v88zM383 923h100v-88h-100v88z" />
    <glyph glyph-name="uni1E7B" unicode="&#x1e7b;" horiz-adv-x="588" 
d="M132.5 36.5q-58.5 51.5 -58.5 150.5v315h105v-300q0 -64 28.5 -94.5t88.5 -30.5t88.5 30.5t28.5 94.5v300h101v-315q0 -99 -57 -150.5t-161 -51.5q-105 0 -163.5 51.5zM169 643h252v-71h-252v71zM168 791h101v-88h-101v88zM332 791h100v-88h-100v88z" />
    <glyph glyph-name="Wgrave" unicode="&#x1e80;" horiz-adv-x="990" 
d="M965 667l-203 -667h-110l-157 501l-157 -501h-111l-202 667h119l148 -528l156 528h95l157 -527l146 527h119zM381 833h99l52 -114h-62z" />
    <glyph glyph-name="wgrave" unicode="&#x1e81;" horiz-adv-x="809" 
d="M779 502l-167 -502h-100l-108 357l-107 -357h-99l-167 502h112l112 -378l106 378h87l109 -380l114 380h108zM282 677h104l53 -118h-62z" />
    <glyph glyph-name="Wacute" unicode="&#x1e82;" horiz-adv-x="990" 
d="M965 667l-203 -667h-110l-157 501l-157 -501h-111l-202 667h119l148 -528l156 528h95l157 -527l146 527h119zM518 841h109l-98 -114h-59z" />
    <glyph glyph-name="wacute" unicode="&#x1e83;" horiz-adv-x="809" 
d="M779 502l-167 -502h-100l-108 357l-107 -357h-99l-167 502h112l112 -378l106 378h87l109 -380l114 380h108zM423 677h105l-95 -118h-62z" />
    <glyph glyph-name="Wdieresis" unicode="&#x1e84;" horiz-adv-x="990" 
d="M965 667l-203 -667h-110l-157 501l-157 -501h-111l-202 667h119l148 -528l156 528h95l157 -527l146 527h119zM362 805h101v-88h-101v88zM526 805h100v-88h-100v88z" />
    <glyph glyph-name="wdieresis" unicode="&#x1e85;" horiz-adv-x="809" 
d="M779 502l-167 -502h-100l-108 357l-107 -357h-99l-167 502h112l112 -378l106 378h87l109 -380l114 380h108zM277 650h101v-88h-101v88zM441 650h100v-88h-100v88z" />
    <glyph glyph-name="uni1E8E" unicode="&#x1e8e;" horiz-adv-x="638" 
d="M377 298v-298h-110v299l-251 368h135l178 -277l171 277h119zM280 789h97v-88h-97v88z" />
    <glyph glyph-name="uni1E8F" unicode="&#x1e8f;" horiz-adv-x="563" 
d="M532 502l-207 -533q-64 -163 -173 -163q-39 0 -66 12v90q25 -10 50 -10q39 0 61.5 26t38.5 79l-205 499h119l137 -375l136 375h109zM232 647h97v-88h-97v88z" />
    <glyph glyph-name="uni1E97" unicode="&#x1e97;" horiz-adv-x="384" 
d="M145 24q-39 37 -39 105v286h-81v87h81v140h108v-140h122v-87h-122v-265q0 -37 13 -53.5t46 -16.5q16 0 33.5 4.5t29.5 11.5v-93q-35 -16 -83 -16q-69 0 -108 37zM26 790h101v-88h-101v88zM190 790h100v-88h-100v88z" />
    <glyph glyph-name="uni1E9E" unicode="&#x1e9e;" horiz-adv-x="714" 
d="M618 339.5q42 -53.5 42 -135.5q0 -57 -25 -107t-76 -81t-126 -31q-37 0 -77.5 13.5t-74.5 37.5v108q26 -30 63 -48.5t81 -18.5q59 0 90.5 32t31.5 89q0 75 -51 119t-143 67v41l160 96q-26 34 -67.5 54.5t-100.5 20.5q-73 0 -114.5 -40t-41.5 -111v-445h-110v448
q0 105 67.5 168t191.5 63q113 0 175 -41t106 -120v-21l-120 -72q77 -32 119 -85.5z" />
    <glyph glyph-name="uni1EA0" unicode="&#x1ea0;" horiz-adv-x="664" 
d="M465 181h-273l-65 -181h-110l260 667h117l253 -667h-116zM432 271l-104 286l-103 -286h207zM287 -50h91v-88h-91v88z" />
    <glyph glyph-name="uni1EA1" unicode="&#x1ea1;" horiz-adv-x="539" 
d="M430.5 473.5q57.5 -39.5 56.5 -127.5v-240q0 -68 -60 -94.5t-171 -26.5q-89 0 -147 37t-58 124q0 82 47.5 123t134.5 41q90 0 150 -36v48q0 102 -123 102q-44 0 -88 -13.5t-73 -37.5v98q28 18 81.5 30t110.5 12q82 0 139.5 -39.5zM357 76q26 9 26 36v97q-51 22 -112 22
q-57 0 -86.5 -20t-29.5 -60q0 -42 33.5 -63t79.5 -21q63 0 89 9zM236 -50h91v-88h-91v88z" />
    <glyph glyph-name="uni1EA2" unicode="&#x1ea2;" horiz-adv-x="664" 
d="M465 181h-273l-65 -181h-110l260 667h117l253 -667h-116zM432 271l-104 286l-103 -286h207zM299 757q17 0 27 7.5t10 16.5q0 25 -46 25q-13 0 -28 -3v50q15 3 43 3q43 0 72 -17t29 -55q0 -24 -14 -39t-41 -19v-23h-52v54z" />
    <glyph glyph-name="uni1EA3" unicode="&#x1ea3;" horiz-adv-x="562" 
d="M430.5 473.5q57.5 -39.5 56.5 -127.5v-240q0 -68 -60 -94.5t-171 -26.5q-89 0 -147 37t-58 124q0 82 47.5 123t134.5 41q90 0 150 -36v48q0 102 -123 102q-44 0 -88 -13.5t-73 -37.5v98q28 18 81.5 30t110.5 12q82 0 139.5 -39.5zM357 76q26 9 26 36v97q-51 22 -112 22
q-57 0 -86.5 -20t-29.5 -60q0 -42 33.5 -63t79.5 -21q63 0 89 9zM260 617q17 0 27 7.5t10 16.5q0 25 -46 25q-13 0 -28 -3v50q15 3 43 3q43 0 72 -17t29 -55q0 -24 -14 -39t-41 -19v-23h-52v54z" />
    <glyph glyph-name="uni1EA4" unicode="&#x1ea4;" horiz-adv-x="664" 
d="M465 181h-273l-65 -181h-110l260 667h117l253 -667h-116zM432 271l-104 286l-103 -286h207zM293 844h87l83 -121h-69l-58 65l-58 -65h-69zM483 910h109l-98 -114h-59z" />
    <glyph glyph-name="uni1EA5" unicode="&#x1ea5;" horiz-adv-x="562" 
d="M430.5 473.5q57.5 -39.5 56.5 -127.5v-240q0 -68 -60 -94.5t-171 -26.5q-89 0 -147 37t-58 124q0 82 47.5 123t134.5 41q90 0 150 -36v48q0 102 -123 102q-44 0 -88 -13.5t-73 -37.5v98q28 18 81.5 30t110.5 12q82 0 139.5 -39.5zM357 76q26 9 26 36v97q-51 22 -112 22
q-57 0 -86.5 -20t-29.5 -60q0 -42 33.5 -63t79.5 -21q63 0 89 9zM248 685h87l83 -121h-69l-58 65l-58 -65h-69zM438 751h109l-98 -114h-59z" />
    <glyph glyph-name="uni1EA6" unicode="&#x1ea6;" horiz-adv-x="664" 
d="M465 181h-273l-65 -181h-110l260 667h117l253 -667h-116zM432 271l-104 286l-103 -286h207zM294 844h87l83 -121h-69l-58 65l-58 -65h-69zM65 905h99l52 -114h-62z" />
    <glyph glyph-name="uni1EA7" unicode="&#x1ea7;" horiz-adv-x="562" 
d="M430.5 473.5q57.5 -39.5 56.5 -127.5v-240q0 -68 -60 -94.5t-171 -26.5q-89 0 -147 37t-58 124q0 82 47.5 123t134.5 41q90 0 150 -36v48q0 102 -123 102q-44 0 -88 -13.5t-73 -37.5v98q28 18 81.5 30t110.5 12q82 0 139.5 -39.5zM357 76q26 9 26 36v97q-51 22 -112 22
q-57 0 -86.5 -20t-29.5 -60q0 -42 33.5 -63t79.5 -21q63 0 89 9zM249 685h87l83 -121h-69l-58 65l-58 -65h-69zM20 746h99l52 -114h-62z" />
    <glyph glyph-name="uni1EA8" unicode="&#x1ea8;" horiz-adv-x="664" 
d="M465 181h-273l-65 -181h-110l260 667h117l253 -667h-116zM432 271l-104 286l-103 -286h207zM283 844h87l83 -121h-69l-58 65l-58 -65h-69zM447 833q17 0 27 7.5t10 16.5q0 25 -46 25q-13 0 -28 -3v50q15 3 43 3q43 0 72 -17t29 -55q0 -24 -14 -39t-41 -19v-23h-52v54z
" />
    <glyph glyph-name="uni1EA9" unicode="&#x1ea9;" horiz-adv-x="562" 
d="M430.5 473.5q57.5 -39.5 56.5 -127.5v-240q0 -68 -60 -94.5t-171 -26.5q-89 0 -147 37t-58 124q0 82 47.5 123t134.5 41q90 0 150 -36v48q0 102 -123 102q-44 0 -88 -13.5t-73 -37.5v98q28 18 81.5 30t110.5 12q82 0 139.5 -39.5zM357 76q26 9 26 36v97q-51 22 -112 22
q-57 0 -86.5 -20t-29.5 -60q0 -42 33.5 -63t79.5 -21q63 0 89 9zM238 685h87l83 -121h-69l-58 65l-58 -65h-69zM402 674q17 0 27 7.5t10 16.5q0 25 -46 25q-13 0 -28 -3v50q15 3 43 3q43 0 72 -17t29 -55q0 -24 -14 -39t-41 -19v-23h-52v54z" />
    <glyph glyph-name="uni1EAA" unicode="&#x1eaa;" horiz-adv-x="664" 
d="M465 181h-273l-65 -181h-110l260 667h117l253 -667h-116zM432 271l-104 286l-103 -286h207zM294 828h87l83 -121h-69l-58 65l-58 -65h-69zM176 866q-2 16 -2 24q0 44 27.5 72.5t64.5 28.5q24 0 43.5 -9.5t43.5 -27.5q19 -14 30.5 -20.5t24.5 -6.5q14 0 22 10t8 29
q0 9 -1 14h60q1 -6 1 -17q0 -45 -27.5 -73.5t-69.5 -28.5q-27 0 -48 10.5t-44 28.5q-17 13 -26.5 18.5t-19.5 5.5q-14 0 -23 -11.5t-9 -31.5q0 -10 1 -15h-56z" />
    <glyph glyph-name="uni1EAB" unicode="&#x1eab;" horiz-adv-x="562" 
d="M430.5 473.5q57.5 -39.5 56.5 -127.5v-240q0 -68 -60 -94.5t-171 -26.5q-89 0 -147 37t-58 124q0 82 47.5 123t134.5 41q90 0 150 -36v48q0 102 -123 102q-44 0 -88 -13.5t-73 -37.5v98q28 18 81.5 30t110.5 12q82 0 139.5 -39.5zM357 76q26 9 26 36v97q-51 22 -112 22
q-57 0 -86.5 -20t-29.5 -60q0 -42 33.5 -63t79.5 -21q63 0 89 9zM249 669h87l83 -121h-69l-58 65l-58 -65h-69zM131 707q-2 16 -2 24q0 44 27.5 72.5t64.5 28.5q24 0 43.5 -9.5t43.5 -27.5q19 -14 30.5 -20.5t24.5 -6.5q14 0 22 10t8 29q0 9 -1 14h60q1 -6 1 -17
q0 -45 -27.5 -73.5t-69.5 -28.5q-27 0 -48 10.5t-44 28.5q-17 13 -26.5 18.5t-19.5 5.5q-14 0 -23 -11.5t-9 -31.5q0 -10 1 -15h-56z" />
    <glyph glyph-name="uni1EAC" unicode="&#x1eac;" horiz-adv-x="664" 
d="M465 181h-273l-65 -181h-110l260 667h117l253 -667h-116zM432 271l-104 286l-103 -286h207zM287 -50h91v-88h-91v88zM290 837h87l83 -121h-69l-58 65l-58 -65h-69z" />
    <glyph glyph-name="uni1EAD" unicode="&#x1ead;" horiz-adv-x="539" 
d="M430.5 473.5q57.5 -39.5 56.5 -127.5v-240q0 -68 -60 -94.5t-171 -26.5q-89 0 -147 37t-58 124q0 82 47.5 123t134.5 41q90 0 150 -36v48q0 102 -123 102q-44 0 -88 -13.5t-73 -37.5v98q28 18 81.5 30t110.5 12q82 0 139.5 -39.5zM357 76q26 9 26 36v97q-51 22 -112 22
q-57 0 -86.5 -20t-29.5 -60q0 -42 33.5 -63t79.5 -21q63 0 89 9zM236 -50h91v-88h-91v88zM248 691h87l83 -121h-69l-58 65l-58 -65h-69z" />
    <glyph glyph-name="uni1EAE" unicode="&#x1eae;" horiz-adv-x="664" 
d="M465 181h-273l-65 -181h-110l260 667h117l253 -667h-116zM432 271l-104 286l-103 -286h207zM239 742q-36 32 -48 90h65q10 -27 29.5 -43.5t47.5 -16.5q53 0 76 60h65q-8 -57 -45.5 -89.5t-95.5 -32.5t-94 32zM344 964h109l-98 -114h-59z" />
    <glyph glyph-name="uni1EAF" unicode="&#x1eaf;" horiz-adv-x="562" 
d="M430.5 473.5q57.5 -39.5 56.5 -127.5v-240q0 -68 -60 -94.5t-171 -26.5q-89 0 -147 37t-58 124q0 82 47.5 123t134.5 41q90 0 150 -36v48q0 102 -123 102q-44 0 -88 -13.5t-73 -37.5v98q28 18 81.5 30t110.5 12q82 0 139.5 -39.5zM357 76q26 9 26 36v97q-51 22 -112 22
q-57 0 -86.5 -20t-29.5 -60q0 -42 33.5 -63t79.5 -21q63 0 89 9zM194 583q-36 32 -48 90h65q10 -27 29.5 -43.5t47.5 -16.5q53 0 76 60h65q-8 -57 -45.5 -89.5t-95.5 -32.5t-94 32zM299 805h109l-98 -114h-59z" />
    <glyph glyph-name="uni1EB0" unicode="&#x1eb0;" horiz-adv-x="664" 
d="M465 181h-273l-65 -181h-110l260 667h117l253 -667h-116zM432 271l-104 286l-103 -286h207zM239 742q-36 32 -48 90h65q10 -27 29.5 -43.5t47.5 -16.5q53 0 76 60h65q-8 -57 -45.5 -89.5t-95.5 -32.5t-94 32zM209 960h104l53 -118h-62z" />
    <glyph glyph-name="uni1EB1" unicode="&#x1eb1;" horiz-adv-x="562" 
d="M430.5 473.5q57.5 -39.5 56.5 -127.5v-240q0 -68 -60 -94.5t-171 -26.5q-89 0 -147 37t-58 124q0 82 47.5 123t134.5 41q90 0 150 -36v48q0 102 -123 102q-44 0 -88 -13.5t-73 -37.5v98q28 18 81.5 30t110.5 12q82 0 139.5 -39.5zM357 76q26 9 26 36v97q-51 22 -112 22
q-57 0 -86.5 -20t-29.5 -60q0 -42 33.5 -63t79.5 -21q63 0 89 9zM194 583q-36 32 -48 90h65q10 -27 29.5 -43.5t47.5 -16.5q53 0 76 60h65q-8 -57 -45.5 -89.5t-95.5 -32.5t-94 32zM164 801h104l53 -118h-62z" />
    <glyph glyph-name="uni1EB2" unicode="&#x1eb2;" horiz-adv-x="664" 
d="M465 181h-273l-65 -181h-110l260 667h117l253 -667h-116zM432 271l-104 286l-103 -286h207zM233 742q-36 32 -48 90h65q10 -27 29.5 -43.5t47.5 -16.5q53 0 76 60h65q-8 -57 -45.5 -89.5t-95.5 -32.5t-94 32zM299 897q17 0 27 7.5t10 16.5q0 25 -46 25q-13 0 -28 -3v50
q15 3 43 3q43 0 72 -17t29 -55q0 -24 -14 -39t-41 -19v-23h-52v54z" />
    <glyph glyph-name="uni1EB3" unicode="&#x1eb3;" horiz-adv-x="562" 
d="M430.5 473.5q57.5 -39.5 56.5 -127.5v-240q0 -68 -60 -94.5t-171 -26.5q-89 0 -147 37t-58 124q0 82 47.5 123t134.5 41q90 0 150 -36v48q0 102 -123 102q-44 0 -88 -13.5t-73 -37.5v98q28 18 81.5 30t110.5 12q82 0 139.5 -39.5zM357 76q26 9 26 36v97q-51 22 -112 22
q-57 0 -86.5 -20t-29.5 -60q0 -42 33.5 -63t79.5 -21q63 0 89 9zM188 583q-36 32 -48 90h65q10 -27 29.5 -43.5t47.5 -16.5q53 0 76 60h65q-8 -57 -45.5 -89.5t-95.5 -32.5t-94 32zM254 738q17 0 27 7.5t10 16.5q0 25 -46 25q-13 0 -28 -3v50q15 3 43 3q43 0 72 -17t29 -55
q0 -24 -14 -39t-41 -19v-23h-52v54z" />
    <glyph glyph-name="uni1EB4" unicode="&#x1eb4;" horiz-adv-x="664" 
d="M465 181h-273l-65 -181h-110l260 667h117l253 -667h-116zM432 271l-104 286l-103 -286h207zM240 742q-36 32 -48 90h65q10 -27 29.5 -43.5t47.5 -16.5q53 0 76 60h65q-8 -57 -45.5 -89.5t-95.5 -32.5t-94 32zM177 866q-2 16 -2 24q0 44 27.5 72.5t64.5 28.5
q24 0 43.5 -9.5t43.5 -27.5q19 -14 30.5 -20.5t24.5 -6.5q14 0 22 10t8 29q0 9 -1 14h60q1 -6 1 -17q0 -45 -27.5 -73.5t-69.5 -28.5q-27 0 -48 10.5t-44 28.5q-17 13 -26.5 18.5t-19.5 5.5q-14 0 -23 -11.5t-9 -31.5q0 -10 1 -15h-56z" />
    <glyph glyph-name="uni1EB5" unicode="&#x1eb5;" horiz-adv-x="562" 
d="M430.5 473.5q57.5 -39.5 56.5 -127.5v-240q0 -68 -60 -94.5t-171 -26.5q-89 0 -147 37t-58 124q0 82 47.5 123t134.5 41q90 0 150 -36v48q0 102 -123 102q-44 0 -88 -13.5t-73 -37.5v98q28 18 81.5 30t110.5 12q82 0 139.5 -39.5zM357 76q26 9 26 36v97q-51 22 -112 22
q-57 0 -86.5 -20t-29.5 -60q0 -42 33.5 -63t79.5 -21q63 0 89 9zM195 583q-36 32 -48 90h65q10 -27 29.5 -43.5t47.5 -16.5q53 0 76 60h65q-8 -57 -45.5 -89.5t-95.5 -32.5t-94 32zM132 707q-2 16 -2 24q0 44 27.5 72.5t64.5 28.5q24 0 43.5 -9.5t43.5 -27.5
q19 -14 30.5 -20.5t24.5 -6.5q14 0 22 10t8 29q0 9 -1 14h60q1 -6 1 -17q0 -45 -27.5 -73.5t-69.5 -28.5q-27 0 -48 10.5t-44 28.5q-17 13 -26.5 18.5t-19.5 5.5q-14 0 -23 -11.5t-9 -31.5q0 -10 1 -15h-56z" />
    <glyph glyph-name="uni1EB6" unicode="&#x1eb6;" horiz-adv-x="664" 
d="M465 181h-273l-65 -181h-110l260 667h117l253 -667h-116zM432 271l-104 286l-103 -286h207zM287 -50h91v-88h-91v88zM240 729q-36 32 -48 90h65q10 -27 29.5 -43.5t47.5 -16.5q53 0 76 60h65q-8 -57 -45.5 -89.5t-95.5 -32.5t-94 32z" />
    <glyph glyph-name="uni1EB7" unicode="&#x1eb7;" horiz-adv-x="539" 
d="M191.5 566.5q-29.5 27.5 -29.5 77.5h61q0 -26 12 -38t40 -12q27 0 39 12t13 38h61q0 -50 -29.5 -77.5t-83.5 -27.5t-83.5 27.5zM430.5 473.5q57.5 -39.5 56.5 -127.5v-240q0 -68 -60 -94.5t-171 -26.5q-89 0 -147 37t-58 124q0 82 47.5 123t134.5 41q90 0 150 -36v48
q0 102 -123 102q-44 0 -88 -13.5t-73 -37.5v98q28 18 81.5 30t110.5 12q82 0 139.5 -39.5zM357 76q26 9 26 36v97q-51 22 -112 22q-57 0 -86.5 -20t-29.5 -60q0 -42 33.5 -63t79.5 -21q63 0 89 9zM235 -50h91v-88h-91v88z" />
    <glyph glyph-name="uni1EB8" unicode="&#x1eb8;" horiz-adv-x="586" 
d="M79 667h437v-93h-326v-193h284v-94h-285v-194h327v-93h-437v667zM241 -50h91v-88h-91v88z" />
    <glyph glyph-name="uni1EB9" unicode="&#x1eb9;" horiz-adv-x="553" 
d="M452.5 438.5q54.5 -75.5 53.5 -211.5h-352q5 -74 43.5 -112.5t109.5 -38.5q46 0 88 11.5t74 29.5v-98q-78 -34 -179 -34q-113 0 -177.5 68.5t-64.5 194.5q0 129 61 197.5t172 68.5q117 0 171.5 -75.5zM195 400q-30 -28 -39 -95h243q-7 64 -36 93.5t-85 29.5
q-53 0 -83 -28zM242 -50h91v-88h-91v88z" />
    <glyph glyph-name="uni1EBA" unicode="&#x1eba;" horiz-adv-x="586" 
d="M79 667h437v-93h-326v-193h284v-94h-285v-194h327v-93h-437v667zM272 757q17 0 27 7.5t10 16.5q0 25 -46 25q-13 0 -28 -3v50q15 3 43 3q43 0 72 -17t29 -55q0 -24 -14 -39t-41 -19v-23h-52v54z" />
    <glyph glyph-name="uni1EBB" unicode="&#x1ebb;" horiz-adv-x="553" 
d="M452.5 438.5q54.5 -75.5 53.5 -211.5h-352q5 -74 43.5 -112.5t109.5 -38.5q46 0 88 11.5t74 29.5v-98q-78 -34 -179 -34q-113 0 -177.5 68.5t-64.5 194.5q0 129 61 197.5t172 68.5q117 0 171.5 -75.5zM195 400q-30 -28 -39 -95h243q-7 64 -36 93.5t-85 29.5
q-53 0 -83 -28zM257 614q17 0 27 7.5t10 16.5q0 25 -46 25q-13 0 -28 -3v50q15 3 43 3q43 0 72 -17t29 -55q0 -24 -14 -39t-41 -19v-23h-52v54z" />
    <glyph glyph-name="uni1EBC" unicode="&#x1ebc;" horiz-adv-x="586" 
d="M79 667h437v-93h-326v-193h284v-94h-285v-194h327v-93h-437v667zM153 723q-2 16 -2 24q0 44 27.5 72.5t64.5 28.5q24 0 43.5 -9.5t43.5 -27.5q19 -14 30.5 -20.5t24.5 -6.5q14 0 22 10t8 29q0 9 -1 14h60q1 -6 1 -17q0 -45 -27.5 -73.5t-69.5 -28.5q-27 0 -48 10.5
t-44 28.5q-17 13 -26.5 18.5t-19.5 5.5q-14 0 -23 -11.5t-9 -31.5q0 -10 1 -15h-56z" />
    <glyph glyph-name="uni1EBD" unicode="&#x1ebd;" horiz-adv-x="553" 
d="M452.5 438.5q54.5 -75.5 53.5 -211.5h-352q5 -74 43.5 -112.5t109.5 -38.5q46 0 88 11.5t74 29.5v-98q-78 -34 -179 -34q-113 0 -177.5 68.5t-64.5 194.5q0 129 61 197.5t172 68.5q117 0 171.5 -75.5zM195 400q-30 -28 -39 -95h243q-7 64 -36 93.5t-85 29.5
q-53 0 -83 -28zM128 550q-2 16 -2 24q0 44 27.5 72.5t64.5 28.5q24 0 43.5 -9.5t43.5 -27.5q19 -14 30.5 -20.5t24.5 -6.5q14 0 22 10t8 29q0 9 -1 14h60q1 -6 1 -17q0 -45 -27.5 -73.5t-69.5 -28.5q-27 0 -48 10.5t-44 28.5q-17 13 -26.5 18.5t-19.5 5.5q-14 0 -23 -11.5
t-9 -31.5q0 -10 1 -15h-56z" />
    <glyph glyph-name="uni1EBE" unicode="&#x1ebe;" horiz-adv-x="586" 
d="M79 667h437v-93h-326v-193h284v-94h-285v-194h327v-93h-437v667zM266 844h87l83 -121h-69l-58 65l-58 -65h-69zM456 910h109l-98 -114h-59z" />
    <glyph glyph-name="uni1EBF" unicode="&#x1ebf;" horiz-adv-x="553" 
d="M452.5 438.5q54.5 -75.5 53.5 -211.5h-352q5 -74 43.5 -112.5t109.5 -38.5q46 0 88 11.5t74 29.5v-98q-78 -34 -179 -34q-113 0 -177.5 68.5t-64.5 194.5q0 129 61 197.5t172 68.5q117 0 171.5 -75.5zM195 400q-30 -28 -39 -95h243q-7 64 -36 93.5t-85 29.5
q-53 0 -83 -28zM245 682h87l83 -121h-69l-58 65l-58 -65h-69zM435 748h109l-98 -114h-59z" />
    <glyph glyph-name="uni1EC0" unicode="&#x1ec0;" horiz-adv-x="586" 
d="M79 667h437v-93h-326v-193h284v-94h-285v-194h327v-93h-437v667zM267 844h87l83 -121h-69l-58 65l-58 -65h-69zM38 905h99l52 -114h-62z" />
    <glyph glyph-name="uni1EC1" unicode="&#x1ec1;" horiz-adv-x="553" 
d="M452.5 438.5q54.5 -75.5 53.5 -211.5h-352q5 -74 43.5 -112.5t109.5 -38.5q46 0 88 11.5t74 29.5v-98q-78 -34 -179 -34q-113 0 -177.5 68.5t-64.5 194.5q0 129 61 197.5t172 68.5q117 0 171.5 -75.5zM195 400q-30 -28 -39 -95h243q-7 64 -36 93.5t-85 29.5
q-53 0 -83 -28zM246 682h87l83 -121h-69l-58 65l-58 -65h-69zM17 743h99l52 -114h-62z" />
    <glyph glyph-name="uni1EC2" unicode="&#x1ec2;" horiz-adv-x="586" 
d="M79 667h437v-93h-326v-193h284v-94h-285v-194h327v-93h-437v667zM256 844h87l83 -121h-69l-58 65l-58 -65h-69zM420 833q17 0 27 7.5t10 16.5q0 25 -46 25q-13 0 -28 -3v50q15 3 43 3q43 0 72 -17t29 -55q0 -24 -14 -39t-41 -19v-23h-52v54z" />
    <glyph glyph-name="uni1EC3" unicode="&#x1ec3;" horiz-adv-x="553" 
d="M452.5 438.5q54.5 -75.5 53.5 -211.5h-352q5 -74 43.5 -112.5t109.5 -38.5q46 0 88 11.5t74 29.5v-98q-78 -34 -179 -34q-113 0 -177.5 68.5t-64.5 194.5q0 129 61 197.5t172 68.5q117 0 171.5 -75.5zM195 400q-30 -28 -39 -95h243q-7 64 -36 93.5t-85 29.5
q-53 0 -83 -28zM235 682h87l83 -121h-69l-58 65l-58 -65h-69zM399 671q17 0 27 7.5t10 16.5q0 25 -46 25q-13 0 -28 -3v50q15 3 43 3q43 0 72 -17t29 -55q0 -24 -14 -39t-41 -19v-23h-52v54z" />
    <glyph glyph-name="uni1EC4" unicode="&#x1ec4;" horiz-adv-x="586" 
d="M79 667h437v-93h-326v-193h284v-94h-285v-194h327v-93h-437v667zM267 828h87l83 -121h-69l-58 65l-58 -65h-69zM149 866q-2 16 -2 24q0 44 27.5 72.5t64.5 28.5q24 0 43.5 -9.5t43.5 -27.5q19 -14 30.5 -20.5t24.5 -6.5q14 0 22 10t8 29q0 9 -1 14h60q1 -6 1 -17
q0 -45 -27.5 -73.5t-69.5 -28.5q-27 0 -48 10.5t-44 28.5q-17 13 -26.5 18.5t-19.5 5.5q-14 0 -23 -11.5t-9 -31.5q0 -10 1 -15h-56z" />
    <glyph glyph-name="uni1EC5" unicode="&#x1ec5;" horiz-adv-x="553" 
d="M452.5 438.5q54.5 -75.5 53.5 -211.5h-352q5 -74 43.5 -112.5t109.5 -38.5q46 0 88 11.5t74 29.5v-98q-78 -34 -179 -34q-113 0 -177.5 68.5t-64.5 194.5q0 129 61 197.5t172 68.5q117 0 171.5 -75.5zM195 400q-30 -28 -39 -95h243q-7 64 -36 93.5t-85 29.5
q-53 0 -83 -28zM246 666h87l83 -121h-69l-58 65l-58 -65h-69zM128 704q-2 16 -2 24q0 44 27.5 72.5t64.5 28.5q24 0 43.5 -9.5t43.5 -27.5q19 -14 30.5 -20.5t24.5 -6.5q14 0 22 10t8 29q0 9 -1 14h60q1 -6 1 -17q0 -45 -27.5 -73.5t-69.5 -28.5q-27 0 -48 10.5t-44 28.5
q-17 13 -26.5 18.5t-19.5 5.5q-14 0 -23 -11.5t-9 -31.5q0 -10 1 -15h-56z" />
    <glyph glyph-name="uni1EC6" unicode="&#x1ec6;" horiz-adv-x="586" 
d="M79 667h437v-93h-326v-193h284v-94h-285v-194h327v-93h-437v667zM241 -50h91v-88h-91v88zM263 837h87l83 -121h-69l-58 65l-58 -65h-69z" />
    <glyph glyph-name="uni1EC7" unicode="&#x1ec7;" horiz-adv-x="553" 
d="M452.5 438.5q54.5 -75.5 53.5 -211.5h-352q5 -74 43.5 -112.5t109.5 -38.5q46 0 88 11.5t74 29.5v-98q-78 -34 -179 -34q-113 0 -177.5 68.5t-64.5 194.5q0 129 61 197.5t172 68.5q117 0 171.5 -75.5zM195 400q-30 -28 -39 -95h243q-7 64 -36 93.5t-85 29.5
q-53 0 -83 -28zM245 688h87l83 -121h-69l-58 65l-58 -65h-69zM242 -50h91v-88h-91v88z" />
    <glyph glyph-name="uni1EC8" unicode="&#x1ec8;" horiz-adv-x="269" 
d="M79 667h111v-667h-111v667zM103 757q17 0 27 7.5t10 16.5q0 25 -46 25q-13 0 -28 -3v50q15 3 43 3q43 0 72 -17t29 -55q0 -24 -14 -39t-41 -19v-23h-52v54z" />
    <glyph glyph-name="uni1EC9" unicode="&#x1ec9;" horiz-adv-x="297" 
d="M128 616q16 0 25 6t9 15q0 12 -11.5 18.5t-30.5 6.5q-14 0 -29 -3v46q15 3 37 3q39 0 65.5 -16.5t26.5 -52.5q0 -23 -15 -36.5t-37 -17.5v-23h-40v54zM98 499h102v-499h-102v499z" />
    <glyph glyph-name="uni1ECA" unicode="&#x1eca;" horiz-adv-x="269" 
d="M79 667h111v-667h-111v667zM86 -50h91v-88h-91v88z" />
    <glyph glyph-name="uni1ECB" unicode="&#x1ecb;" horiz-adv-x="297" 
d="M95 673h109v-95h-109v95zM98 499h102v-499h-102v499zM103 -50h91v-88h-91v88z" />
    <glyph glyph-name="uni1ECC" unicode="&#x1ecc;" horiz-adv-x="727" 
d="M133 75q-80 87 -80 258q0 170 79 257.5t231 87.5q151 0 231 -86.5t80 -258.5q0 -170 -79.5 -257.5t-231.5 -87.5q-150 0 -230 87zM512.5 143.5q47.5 59.5 47.5 190.5q0 130 -48 189t-149 59t-149 -59t-48 -190t48 -190t149 -59q102 0 149.5 59.5zM323 -50h91v-88h-91v88z
" />
    <glyph glyph-name="uni1ECD" unicode="&#x1ecd;" horiz-adv-x="578" 
d="M108.5 53q-60.5 68 -60.5 198q0 263 240 263q121 0 182 -67.5t61 -195.5t-63 -197t-179 -69q-120 0 -180.5 68zM426 251q0 88 -33 131.5t-105 43.5q-73 0 -104.5 -44.5t-31.5 -130.5t32.5 -131.5t103.5 -45.5q138 0 138 177zM245 -50h91v-88h-91v88z" />
    <glyph glyph-name="uni1ECE" unicode="&#x1ece;" horiz-adv-x="727" 
d="M133 75q-80 87 -80 258q0 170 79 257.5t231 87.5q151 0 231 -86.5t80 -258.5q0 -170 -79.5 -257.5t-231.5 -87.5q-150 0 -230 87zM512.5 143.5q47.5 59.5 47.5 190.5q0 130 -48 189t-149 59t-149 -59t-48 -190t48 -190t149 -59q102 0 149.5 59.5zM335 766q17 0 27 7.5
t10 16.5q0 25 -46 25q-13 0 -28 -3v50q15 3 43 3q43 0 72 -17t29 -55q0 -24 -14 -39t-41 -19v-23h-52v54z" />
    <glyph glyph-name="uni1ECF" unicode="&#x1ecf;" horiz-adv-x="578" 
d="M108.5 53q-60.5 68 -60.5 198q0 263 240 263q121 0 182 -67.5t61 -195.5t-63 -197t-179 -69q-120 0 -180.5 68zM426 251q0 88 -33 131.5t-105 43.5q-73 0 -104.5 -44.5t-31.5 -130.5t32.5 -131.5t103.5 -45.5q138 0 138 177zM263 617q17 0 27 7.5t10 16.5q0 25 -46 25
q-13 0 -28 -3v50q15 3 43 3q43 0 72 -17t29 -55q0 -24 -14 -39t-41 -19v-23h-52v54z" />
    <glyph glyph-name="uni1ED0" unicode="&#x1ed0;" horiz-adv-x="727" 
d="M133 75q-80 87 -80 258q0 170 79 257.5t231 87.5q151 0 231 -86.5t80 -258.5q0 -170 -79.5 -257.5t-231.5 -87.5q-150 0 -230 87zM512.5 143.5q47.5 59.5 47.5 190.5q0 130 -48 189t-149 59t-149 -59t-48 -190t48 -190t149 -59q102 0 149.5 59.5zM329 853h87l83 -121h-69
l-58 65l-58 -65h-69zM519 919h109l-98 -114h-59z" />
    <glyph glyph-name="uni1ED1" unicode="&#x1ed1;" horiz-adv-x="578" 
d="M108.5 53q-60.5 68 -60.5 198q0 263 240 263q121 0 182 -67.5t61 -195.5t-63 -197t-179 -69q-120 0 -180.5 68zM426 251q0 88 -33 131.5t-105 43.5q-73 0 -104.5 -44.5t-31.5 -130.5t32.5 -131.5t103.5 -45.5q138 0 138 177zM251 685h87l83 -121h-69l-58 65l-58 -65h-69z
M441 751h109l-98 -114h-59z" />
    <glyph glyph-name="uni1ED2" unicode="&#x1ed2;" horiz-adv-x="727" 
d="M133 75q-80 87 -80 258q0 170 79 257.5t231 87.5q151 0 231 -86.5t80 -258.5q0 -170 -79.5 -257.5t-231.5 -87.5q-150 0 -230 87zM512.5 143.5q47.5 59.5 47.5 190.5q0 130 -48 189t-149 59t-149 -59t-48 -190t48 -190t149 -59q102 0 149.5 59.5zM330 853h87l83 -121h-69
l-58 65l-58 -65h-69zM101 914h99l52 -114h-62z" />
    <glyph glyph-name="uni1ED3" unicode="&#x1ed3;" horiz-adv-x="578" 
d="M108.5 53q-60.5 68 -60.5 198q0 263 240 263q121 0 182 -67.5t61 -195.5t-63 -197t-179 -69q-120 0 -180.5 68zM426 251q0 88 -33 131.5t-105 43.5q-73 0 -104.5 -44.5t-31.5 -130.5t32.5 -131.5t103.5 -45.5q138 0 138 177zM252 685h87l83 -121h-69l-58 65l-58 -65h-69z
M23 746h99l52 -114h-62z" />
    <glyph glyph-name="uni1ED4" unicode="&#x1ed4;" horiz-adv-x="727" 
d="M133 75q-80 87 -80 258q0 170 79 257.5t231 87.5q151 0 231 -86.5t80 -258.5q0 -170 -79.5 -257.5t-231.5 -87.5q-150 0 -230 87zM512.5 143.5q47.5 59.5 47.5 190.5q0 130 -48 189t-149 59t-149 -59t-48 -190t48 -190t149 -59q102 0 149.5 59.5zM319 853h87l83 -121h-69
l-58 65l-58 -65h-69zM483 842q17 0 27 7.5t10 16.5q0 25 -46 25q-13 0 -28 -3v50q15 3 43 3q43 0 72 -17t29 -55q0 -24 -14 -39t-41 -19v-23h-52v54z" />
    <glyph glyph-name="uni1ED5" unicode="&#x1ed5;" horiz-adv-x="578" 
d="M108.5 53q-60.5 68 -60.5 198q0 263 240 263q121 0 182 -67.5t61 -195.5t-63 -197t-179 -69q-120 0 -180.5 68zM426 251q0 88 -33 131.5t-105 43.5q-73 0 -104.5 -44.5t-31.5 -130.5t32.5 -131.5t103.5 -45.5q138 0 138 177zM241 685h87l83 -121h-69l-58 65l-58 -65h-69z
M405 674q17 0 27 7.5t10 16.5q0 25 -46 25q-13 0 -28 -3v50q15 3 43 3q43 0 72 -17t29 -55q0 -24 -14 -39t-41 -19v-23h-52v54z" />
    <glyph glyph-name="uni1ED6" unicode="&#x1ed6;" horiz-adv-x="727" 
d="M133 75q-80 87 -80 258q0 170 79 257.5t231 87.5q151 0 231 -86.5t80 -258.5q0 -170 -79.5 -257.5t-231.5 -87.5q-150 0 -230 87zM512.5 143.5q47.5 59.5 47.5 190.5q0 130 -48 189t-149 59t-149 -59t-48 -190t48 -190t149 -59q102 0 149.5 59.5zM330 837h87l83 -121h-69
l-58 65l-58 -65h-69zM212 875q-2 16 -2 24q0 44 27.5 72.5t64.5 28.5q24 0 43.5 -9.5t43.5 -27.5q19 -14 30.5 -20.5t24.5 -6.5q14 0 22 10t8 29q0 9 -1 14h60q1 -6 1 -17q0 -45 -27.5 -73.5t-69.5 -28.5q-27 0 -48 10.5t-44 28.5q-17 13 -26.5 18.5t-19.5 5.5
q-14 0 -23 -11.5t-9 -31.5q0 -10 1 -15h-56z" />
    <glyph glyph-name="uni1ED7" unicode="&#x1ed7;" horiz-adv-x="578" 
d="M108.5 53q-60.5 68 -60.5 198q0 263 240 263q121 0 182 -67.5t61 -195.5t-63 -197t-179 -69q-120 0 -180.5 68zM426 251q0 88 -33 131.5t-105 43.5q-73 0 -104.5 -44.5t-31.5 -130.5t32.5 -131.5t103.5 -45.5q138 0 138 177zM252 669h87l83 -121h-69l-58 65l-58 -65h-69z
M134 707q-2 16 -2 24q0 44 27.5 72.5t64.5 28.5q24 0 43.5 -9.5t43.5 -27.5q19 -14 30.5 -20.5t24.5 -6.5q14 0 22 10t8 29q0 9 -1 14h60q1 -6 1 -17q0 -45 -27.5 -73.5t-69.5 -28.5q-27 0 -48 10.5t-44 28.5q-17 13 -26.5 18.5t-19.5 5.5q-14 0 -23 -11.5t-9 -31.5
q0 -10 1 -15h-56z" />
    <glyph glyph-name="uni1ED8" unicode="&#x1ed8;" horiz-adv-x="727" 
d="M133 75q-80 87 -80 258q0 170 79 257.5t231 87.5q151 0 231 -86.5t80 -258.5q0 -170 -79.5 -257.5t-231.5 -87.5q-150 0 -230 87zM512.5 143.5q47.5 59.5 47.5 190.5q0 130 -48 189t-149 59t-149 -59t-48 -190t48 -190t149 -59q102 0 149.5 59.5zM323 -50h91v-88h-91v88z
M326 846h87l83 -121h-69l-58 65l-58 -65h-69z" />
    <glyph glyph-name="uni1ED9" unicode="&#x1ed9;" horiz-adv-x="578" 
d="M108.5 53q-60.5 68 -60.5 198q0 263 240 263q121 0 182 -67.5t61 -195.5t-63 -197t-179 -69q-120 0 -180.5 68zM426 251q0 88 -33 131.5t-105 43.5q-73 0 -104.5 -44.5t-31.5 -130.5t32.5 -131.5t103.5 -45.5q138 0 138 177zM251 691h87l83 -121h-69l-58 65l-58 -65h-69z
M245 -50h91v-88h-91v88z" />
    <glyph glyph-name="uni1EDA" unicode="&#x1eda;" horiz-adv-x="727" 
d="M674 333q0 -170 -79.5 -257.5t-231.5 -87.5q-150 0 -230 87t-80 258q0 170 79 257.5t231 87.5q59 0 109 -14q26 5 43 20.5t17 37.5v31h69v-40q0 -57 -45 -88q118 -83 118 -292zM512.5 143.5q47.5 59.5 47.5 190.5q0 130 -48 189t-149 59t-149 -59t-48 -190t48 -190
t149 -59q102 0 149.5 59.5zM391 850h109l-98 -114h-59z" />
    <glyph glyph-name="uni1EDB" unicode="&#x1edb;" horiz-adv-x="578" 
d="M531 251q0 -128 -63 -197t-179 -69q-120 0 -180.5 68t-60.5 198q0 263 240 263q54 0 93 -13q27 3 46 19.5t19 39.5v31h69v-40q0 -32 -14.5 -56t-40.5 -38q71 -67 71 -206zM426 251q0 88 -33 131.5t-105 43.5q-73 0 -104.5 -44.5t-31.5 -130.5t32.5 -131.5t103.5 -45.5
q138 0 138 177zM308 686h105l-95 -118h-62z" />
    <glyph glyph-name="uni1EDC" unicode="&#x1edc;" horiz-adv-x="727" 
d="M674 333q0 -170 -79.5 -257.5t-231.5 -87.5q-150 0 -230 87t-80 258q0 170 79 257.5t231 87.5q59 0 109 -14q26 5 43 20.5t17 37.5v31h69v-40q0 -57 -45 -88q118 -83 118 -292zM512.5 143.5q47.5 59.5 47.5 190.5q0 130 -48 189t-149 59t-149 -59t-48 -190t48 -190
t149 -59q102 0 149.5 59.5zM254 842h99l52 -114h-62z" />
    <glyph glyph-name="uni1EDD" unicode="&#x1edd;" horiz-adv-x="578" 
d="M531 251q0 -128 -63 -197t-179 -69q-120 0 -180.5 68t-60.5 198q0 263 240 263q54 0 93 -13q27 3 46 19.5t19 39.5v31h69v-40q0 -32 -14.5 -56t-40.5 -38q71 -67 71 -206zM426 251q0 88 -33 131.5t-105 43.5q-73 0 -104.5 -44.5t-31.5 -130.5t32.5 -131.5t103.5 -45.5
q138 0 138 177zM167 686h104l53 -118h-62z" />
    <glyph glyph-name="uni1EDE" unicode="&#x1ede;" horiz-adv-x="727" 
d="M674 333q0 -170 -79.5 -257.5t-231.5 -87.5q-150 0 -230 87t-80 258q0 170 79 257.5t231 87.5q59 0 109 -14q26 5 43 20.5t17 37.5v31h69v-40q0 -57 -45 -88q118 -83 118 -292zM512.5 143.5q47.5 59.5 47.5 190.5q0 130 -48 189t-149 59t-149 -59t-48 -190t48 -190
t149 -59q102 0 149.5 59.5zM335 766q17 0 27 7.5t10 16.5q0 25 -46 25q-13 0 -28 -3v50q15 3 43 3q43 0 72 -17t29 -55q0 -24 -14 -39t-41 -19v-23h-52v54z" />
    <glyph glyph-name="uni1EDF" unicode="&#x1edf;" horiz-adv-x="578" 
d="M531 251q0 -128 -63 -197t-179 -69q-120 0 -180.5 68t-60.5 198q0 263 240 263q54 0 93 -13q27 3 46 19.5t19 39.5v31h69v-40q0 -32 -14.5 -56t-40.5 -38q71 -67 71 -206zM426 251q0 88 -33 131.5t-105 43.5q-73 0 -104.5 -44.5t-31.5 -130.5t32.5 -131.5t103.5 -45.5
q138 0 138 177zM263 617q17 0 27 7.5t10 16.5q0 25 -46 25q-13 0 -28 -3v50q15 3 43 3q43 0 72 -17t29 -55q0 -24 -14 -39t-41 -19v-23h-52v54z" />
    <glyph glyph-name="uni1EE0" unicode="&#x1ee0;" horiz-adv-x="727" 
d="M674 333q0 -170 -79.5 -257.5t-231.5 -87.5q-150 0 -230 87t-80 258q0 170 79 257.5t231 87.5q59 0 109 -14q26 5 43 20.5t17 37.5v31h69v-40q0 -57 -45 -88q118 -83 118 -292zM512.5 143.5q47.5 59.5 47.5 190.5q0 130 -48 189t-149 59t-149 -59t-48 -190t48 -190
t149 -59q102 0 149.5 59.5zM216 732q-2 16 -2 24q0 44 27.5 72.5t64.5 28.5q24 0 43.5 -9.5t43.5 -27.5q19 -14 30.5 -20.5t24.5 -6.5q14 0 22 10t8 29q0 9 -1 14h60q1 -6 1 -17q0 -45 -27.5 -73.5t-69.5 -28.5q-27 0 -48 10.5t-44 28.5q-17 13 -26.5 18.5t-19.5 5.5
q-14 0 -23 -11.5t-9 -31.5q0 -10 1 -15h-56z" />
    <glyph glyph-name="uni1EE1" unicode="&#x1ee1;" horiz-adv-x="578" 
d="M531 251q0 -128 -63 -197t-179 -69q-120 0 -180.5 68t-60.5 198q0 263 240 263q54 0 93 -13q27 3 46 19.5t19 39.5v31h69v-40q0 -32 -14.5 -56t-40.5 -38q71 -67 71 -206zM426 251q0 88 -33 131.5t-105 43.5q-73 0 -104.5 -44.5t-31.5 -130.5t32.5 -131.5t103.5 -45.5
q138 0 138 177zM122 564q-2 16 -2 24q0 44 27.5 72.5t64.5 28.5q24 0 43.5 -9.5t43.5 -27.5q19 -14 30.5 -20.5t24.5 -6.5q14 0 22 10t8 29q0 9 -1 14h60q1 -6 1 -17q0 -45 -27.5 -73.5t-69.5 -28.5q-27 0 -48 10.5t-44 28.5q-17 13 -26.5 18.5t-19.5 5.5q-14 0 -23 -11.5
t-9 -31.5q0 -10 1 -15h-56z" />
    <glyph glyph-name="uni1EE2" unicode="&#x1ee2;" horiz-adv-x="727" 
d="M674 333q0 -170 -79.5 -257.5t-231.5 -87.5q-150 0 -230 87t-80 258q0 170 79 257.5t231 87.5q59 0 109 -14q26 5 43 20.5t17 37.5v31h69v-40q0 -57 -45 -88q118 -83 118 -292zM512.5 143.5q47.5 59.5 47.5 190.5q0 130 -48 189t-149 59t-149 -59t-48 -190t48 -190
t149 -59q102 0 149.5 59.5zM323 -50h91v-88h-91v88z" />
    <glyph glyph-name="uni1EE3" unicode="&#x1ee3;" horiz-adv-x="578" 
d="M531 251q0 -128 -63 -197t-179 -69q-120 0 -180.5 68t-60.5 198q0 263 240 263q54 0 93 -13q27 3 46 19.5t19 39.5v31h69v-40q0 -32 -14.5 -56t-40.5 -38q71 -67 71 -206zM426 251q0 88 -33 131.5t-105 43.5q-73 0 -104.5 -44.5t-31.5 -130.5t32.5 -131.5t103.5 -45.5
q138 0 138 177zM245 -50h91v-88h-91v88z" />
    <glyph glyph-name="uni1EE4" unicode="&#x1ee4;" horiz-adv-x="706" 
d="M151 55q-72 70 -72 207v405h113v-404q0 -94 41 -139.5t123 -45.5q165 0 165 185v404h106v-405q0 -135 -71 -206t-196 -71q-137 0 -209 70zM307 -50h91v-88h-91v88z" />
    <glyph glyph-name="uni1EE5" unicode="&#x1ee5;" horiz-adv-x="597" 
d="M139.5 49q-56.5 57 -56.5 165v285h102v-296q0 -64 28 -95t86 -31t85.5 31t27.5 95v296h102v-285q0 -108 -56.5 -165t-158.5 -57q-103 0 -159.5 57zM253 -49h92v-88h-92v88z" />
    <glyph glyph-name="uni1EE6" unicode="&#x1ee6;" horiz-adv-x="706" 
d="M151 55q-72 70 -72 207v405h113v-404q0 -94 41 -139.5t123 -45.5q165 0 165 185v404h106v-405q0 -135 -71 -206t-196 -71q-137 0 -209 70zM319 760q17 0 27 7.5t10 16.5q0 25 -46 25q-13 0 -28 -3v50q15 3 43 3q43 0 72 -17t29 -55q0 -24 -14 -39t-41 -19v-23h-52v54z
" />
    <glyph glyph-name="uni1EE7" unicode="&#x1ee7;" horiz-adv-x="597" 
d="M280 616q16 0 25 6t9 15q0 12 -11.5 18.5t-30.5 6.5q-15 0 -28 -3v46q18 4 37 4q38 0 64.5 -17t26.5 -52q0 -23 -15 -37t-36 -18v-23h-41v54zM139.5 49q-56.5 57 -56.5 165v285h102v-296q0 -64 28 -95t86 -31t85.5 31t27.5 95v296h102v-285q0 -108 -56.5 -165t-158.5 -57
q-103 0 -159.5 57z" />
    <glyph glyph-name="uni1EE8" unicode="&#x1ee8;" horiz-adv-x="773" 
d="M721 756v-40q0 -43 -25.5 -71t-68.5 -38v-345q0 -135 -71 -206t-196 -71q-137 0 -209 70t-72 207v405h113v-404q0 -94 41 -139.5t123 -45.5q165 0 165 185v404h70q26 4 43.5 20t17.5 38v31h69zM375 844h109l-98 -114h-59z" />
    <glyph glyph-name="uni1EE9" unicode="&#x1ee9;" horiz-adv-x="588" 
d="M607 592v-40q0 -43 -25.5 -71t-67.5 -38v-256q0 -99 -57 -150.5t-161 -51.5q-105 0 -163.5 51.5t-58.5 150.5v315h105v-300q0 -64 28.5 -94.5t88.5 -30.5t88.5 30.5t28.5 94.5v300h50q31 0 53 17t22 42v31h69zM314 683h105l-95 -118h-62z" />
    <glyph glyph-name="uni1EEA" unicode="&#x1eea;" horiz-adv-x="773" 
d="M721 756v-40q0 -43 -25.5 -71t-68.5 -38v-345q0 -135 -71 -206t-196 -71q-137 0 -209 70t-72 207v405h113v-404q0 -94 41 -139.5t123 -45.5q165 0 165 185v404h70q26 4 43.5 20t17.5 38v31h69zM238 836h99l52 -114h-62z" />
    <glyph glyph-name="uni1EEB" unicode="&#x1eeb;" horiz-adv-x="588" 
d="M607 592v-40q0 -43 -25.5 -71t-67.5 -38v-256q0 -99 -57 -150.5t-161 -51.5q-105 0 -163.5 51.5t-58.5 150.5v315h105v-300q0 -64 28.5 -94.5t88.5 -30.5t88.5 30.5t28.5 94.5v300h50q31 0 53 17t22 42v31h69zM173 683h104l53 -118h-62z" />
    <glyph glyph-name="uni1EEC" unicode="&#x1eec;" horiz-adv-x="773" 
d="M721 756v-40q0 -43 -25.5 -71t-68.5 -38v-345q0 -135 -71 -206t-196 -71q-137 0 -209 70t-72 207v405h113v-404q0 -94 41 -139.5t123 -45.5q165 0 165 185v404h70q26 4 43.5 20t17.5 38v31h69zM319 760q17 0 27 7.5t10 16.5q0 25 -46 25q-13 0 -28 -3v50q15 3 43 3
q43 0 72 -17t29 -55q0 -24 -14 -39t-41 -19v-23h-52v54z" />
    <glyph glyph-name="uni1EED" unicode="&#x1eed;" horiz-adv-x="588" 
d="M607 592v-40q0 -43 -25.5 -71t-67.5 -38v-256q0 -99 -57 -150.5t-161 -51.5q-105 0 -163.5 51.5t-58.5 150.5v315h105v-300q0 -64 28.5 -94.5t88.5 -30.5t88.5 30.5t28.5 94.5v300h50q31 0 53 17t22 42v31h69zM269 614q17 0 27 7.5t10 16.5q0 25 -46 25q-13 0 -28 -3v50
q15 3 43 3q43 0 72 -17t29 -55q0 -24 -14 -39t-41 -19v-23h-52v54z" />
    <glyph glyph-name="uni1EEE" unicode="&#x1eee;" horiz-adv-x="773" 
d="M721 756v-40q0 -43 -25.5 -71t-68.5 -38v-345q0 -135 -71 -206t-196 -71q-137 0 -209 70t-72 207v405h113v-404q0 -94 41 -139.5t123 -45.5q165 0 165 185v404h70q26 4 43.5 20t17.5 38v31h69zM200 726q-2 16 -2 24q0 44 27.5 72.5t64.5 28.5q24 0 43.5 -9.5t43.5 -27.5
q19 -14 30.5 -20.5t24.5 -6.5q14 0 22 10t8 29q0 9 -1 14h60q1 -6 1 -17q0 -45 -27.5 -73.5t-69.5 -28.5q-27 0 -48 10.5t-44 28.5q-17 13 -26.5 18.5t-19.5 5.5q-14 0 -23 -11.5t-9 -31.5q0 -10 1 -15h-56z" />
    <glyph glyph-name="uni1EEF" unicode="&#x1eef;" horiz-adv-x="588" 
d="M607 592v-40q0 -43 -25.5 -71t-67.5 -38v-256q0 -99 -57 -150.5t-161 -51.5q-105 0 -163.5 51.5t-58.5 150.5v315h105v-300q0 -64 28.5 -94.5t88.5 -30.5t88.5 30.5t28.5 94.5v300h50q31 0 53 17t22 42v31h69zM140 550q-2 16 -2 24q0 44 27.5 72.5t64.5 28.5
q24 0 43.5 -9.5t43.5 -27.5q19 -14 30.5 -20.5t24.5 -6.5q14 0 22 10t8 29q0 9 -1 14h60q1 -6 1 -17q0 -45 -27.5 -73.5t-69.5 -28.5q-27 0 -48 10.5t-44 28.5q-17 13 -26.5 18.5t-19.5 5.5q-14 0 -23 -11.5t-9 -31.5q0 -10 1 -15h-56z" />
    <glyph glyph-name="uni1EF0" unicode="&#x1ef0;" horiz-adv-x="773" 
d="M721 756v-40q0 -43 -25.5 -71t-68.5 -38v-345q0 -135 -71 -206t-196 -71q-137 0 -209 70t-72 207v405h113v-404q0 -94 41 -139.5t123 -45.5q165 0 165 185v404h70q26 4 43.5 20t17.5 38v31h69zM307 -50h91v-88h-91v88z" />
    <glyph glyph-name="uni1EF1" unicode="&#x1ef1;" horiz-adv-x="588" 
d="M607 592v-40q0 -43 -25.5 -71t-67.5 -38v-256q0 -99 -57 -150.5t-161 -51.5q-105 0 -163.5 51.5t-58.5 150.5v315h105v-300q0 -64 28.5 -94.5t88.5 -30.5t88.5 30.5t28.5 94.5v300h50q31 0 53 17t22 42v31h69zM248 -50h91v-88h-91v88z" />
    <glyph glyph-name="Ygrave" unicode="&#x1ef2;" horiz-adv-x="638" 
d="M377 298v-298h-110v299l-251 368h135l178 -277l171 277h119zM218 833h99l52 -114h-62z" />
    <glyph glyph-name="ygrave" unicode="&#x1ef3;" horiz-adv-x="563" 
d="M532 502l-207 -533q-64 -163 -173 -163q-39 0 -66 12v90q25 -10 50 -10q39 0 61.5 26t38.5 79l-205 499h119l137 -375l136 375h109zM161 677h104l53 -118h-62z" />
    <glyph glyph-name="uni1EF4" unicode="&#x1ef4;" horiz-adv-x="638" 
d="M377 298v-298h-110v299l-251 368h135l178 -277l171 277h119zM273 -50h91v-88h-91v88z" />
    <glyph glyph-name="uni1EF5" unicode="&#x1ef5;" horiz-adv-x="563" 
d="M532 502l-207 -533q-64 -163 -173 -163q-39 0 -66 12v90q25 -10 50 -10q39 0 61.5 26t38.5 79l-205 499h119l137 -375l136 375h109zM381 -50h91v-88h-91v88z" />
    <glyph glyph-name="uni1EF6" unicode="&#x1ef6;" horiz-adv-x="638" 
d="M377 298v-298h-110v299l-251 368h135l178 -277l171 277h119zM299 757q17 0 27 7.5t10 16.5q0 25 -46 25q-13 0 -28 -3v50q15 3 43 3q43 0 72 -17t29 -55q0 -24 -14 -39t-41 -19v-23h-52v54z" />
    <glyph glyph-name="uni1EF7" unicode="&#x1ef7;" horiz-adv-x="563" 
d="M532 502l-207 -533q-64 -163 -173 -163q-39 0 -66 12v90q25 -10 50 -10q39 0 61.5 26t38.5 79l-205 499h119l137 -375l136 375h109zM257 608q17 0 27 7.5t10 16.5q0 25 -46 25q-13 0 -28 -3v50q15 3 43 3q43 0 72 -17t29 -55q0 -24 -14 -39t-41 -19v-23h-52v54z" />
    <glyph glyph-name="uni1EF8" unicode="&#x1ef8;" horiz-adv-x="638" 
d="M377 298v-298h-110v299l-251 368h135l178 -277l171 277h119zM180 723q-2 16 -2 24q0 44 27.5 72.5t64.5 28.5q24 0 43.5 -9.5t43.5 -27.5q19 -14 30.5 -20.5t24.5 -6.5q14 0 22 10t8 29q0 9 -1 14h60q1 -6 1 -17q0 -45 -27.5 -73.5t-69.5 -28.5q-27 0 -48 10.5t-44 28.5
q-17 13 -26.5 18.5t-19.5 5.5q-14 0 -23 -11.5t-9 -31.5q0 -10 1 -15h-56z" />
    <glyph glyph-name="uni1EF9" unicode="&#x1ef9;" horiz-adv-x="563" 
d="M532 502l-207 -533q-64 -163 -173 -163q-39 0 -66 12v90q25 -10 50 -10q39 0 61.5 26t38.5 79l-205 499h119l137 -375l136 375h109zM128 544q-2 16 -2 24q0 44 27.5 72.5t64.5 28.5q24 0 43.5 -9.5t43.5 -27.5q19 -14 30.5 -20.5t24.5 -6.5q14 0 22 10t8 29q0 9 -1 14h60
q1 -6 1 -17q0 -45 -27.5 -73.5t-69.5 -28.5q-27 0 -48 10.5t-44 28.5q-17 13 -26.5 18.5t-19.5 5.5q-14 0 -23 -11.5t-9 -31.5q0 -10 1 -15h-56z" />
    <glyph glyph-name="endash" unicode="&#x2013;" horiz-adv-x="560" 
d="M69 329h420v-79h-420v79z" />
    <glyph glyph-name="emdash" unicode="&#x2014;" horiz-adv-x="891" 
d="M79 332h733v-82h-733v82z" />
    <glyph glyph-name="quoteleft" unicode="&#x2018;" horiz-adv-x="269" 
d="M47 676h99l74 -196h-85z" />
    <glyph glyph-name="quoteright" unicode="&#x2019;" horiz-adv-x="269" 
d="M121 676h99l-87 -196h-86z" />
    <glyph glyph-name="quotesinglbase" unicode="&#x201a;" horiz-adv-x="312" 
d="M146 84h98l-86 -196h-86z" />
    <glyph glyph-name="quotedblleft" unicode="&#x201c;" horiz-adv-x="417" 
d="M47 676h99l74 -196h-85zM195 676h99l74 -196h-86z" />
    <glyph glyph-name="quotedblright" unicode="&#x201d;" horiz-adv-x="415" 
d="M121 676h99l-87 -196h-86zM269 676h99l-88 -196h-85z" />
    <glyph glyph-name="quotedblbase" unicode="&#x201e;" horiz-adv-x="460" 
d="M146 84h98l-86 -196h-86zM293 84h100l-88 -196h-86z" />
    <glyph glyph-name="dagger" unicode="&#x2020;" horiz-adv-x="466" 
d="M204 474h-114v60h114v131h60v-131h113v-60h-113v-378h-60v378z" />
    <glyph glyph-name="daggerdbl" unicode="&#x2021;" horiz-adv-x="497" 
d="M209 140h-141v76h141v189h-141v75h141v141h76v-141h140v-75h-140v-189h140v-76h-140v-140h-76v140z" />
    <glyph glyph-name="bullet" unicode="&#x2022;" horiz-adv-x="450" 
d="M156 214q-31 18 -49.5 49t-18.5 68t18.5 68t49.5 49t68 18q36 0 67 -18t49.5 -49t18.5 -68t-18.5 -68t-49.5 -49t-67 -18q-37 0 -68 18z" />
    <glyph glyph-name="ellipsis" unicode="&#x2026;" horiz-adv-x="810" 
d="M107 97h99v-97h-99v97zM357 97h99v-97h-99v97zM607 97h99v-97h-99v97z" />
    <glyph glyph-name="perthousand" unicode="&#x2030;" horiz-adv-x="1139" 
d="M75.5 356q-37.5 46 -37.5 138t37.5 138t114.5 46t114 -46t37 -138t-37 -138t-114 -46t-114.5 46zM239 401q22 26 22 93q0 68 -22 94t-49 26t-49 -26t-22 -94q0 -67 22 -93t49 -26t49 26zM483.5 38q-37.5 46 -37.5 138t37.5 138t114.5 46t114 -46t37 -138t-37 -138
t-114 -46t-114.5 46zM647 83q22 26 22 93q0 68 -22 94t-49 26t-49 -26t-22 -94q0 -67 22 -93t49 -26t49 26zM835.5 38q-37.5 46 -37.5 138t37.5 138t114.5 46t114 -46t37 -138t-37 -138t-114 -46t-114.5 46zM999 83q22 26 22 93q0 68 -22 94t-49 26t-49 -26t-22 -94
q0 -67 22 -93t49 -26t49 26zM552 685h85l-407 -707h-85z" />
    <glyph glyph-name="guilsinglleft" unicode="&#x2039;" horiz-adv-x="363" 
d="M31 255l169 190h117l-179 -190l179 -191h-117z" />
    <glyph glyph-name="guilsinglright" unicode="&#x203a;" horiz-adv-x="389" 
d="M237 255l-178 190h116l170 -190l-170 -191h-116z" />
    <glyph glyph-name="fraction" unicode="&#x2044;" horiz-adv-x="428" 
d="M374 685h85l-407 -707h-85z" />
    <glyph glyph-name="zero.superior" unicode="&#x2070;" horiz-adv-x="379" 
d="M75.5 503q-37.5 46 -37.5 138t37.5 138t114.5 46t114 -46t37 -138t-37 -138t-114 -46t-114.5 46zM239 548q22 26 22 93q0 68 -22 94t-49 26t-49 -26t-22 -94q0 -67 22 -93t49 -26t49 26z" />
    <glyph glyph-name="four.superior" unicode="&#x2074;" horiz-adv-x="333" 
d="M305 615v-66h-49v-86h-81v86h-148v67l167 206h62v-207h49zM175 615v91l-74 -91h74z" />
    <glyph glyph-name="five.superior" unicode="&#x2075;" horiz-adv-x="321" 
d="M60 481v71q17 -11 39.5 -18.5t45.5 -7.5q59 0 59 47q0 31 -18 43t-45 12q-25 0 -57 -16l-32 42l19 168h195v-69h-134l-8 -70q26 7 59 7q42 0 74 -26t32 -87q0 -65 -34 -91.5t-87 -26.5q-66 0 -108 22z" />
    <glyph glyph-name="six.superior" unicode="&#x2076;" horiz-adv-x="341" 
d="M58.5 499.5q-36.5 41.5 -36.5 127.5q0 120 56.5 159.5t139.5 39.5q27 0 59 -8v-64q-30 9 -54 9q-36 0 -72 -20.5t-42 -74.5q31 26 84 26q52 0 83.5 -29.5t31.5 -82.5q0 -52 -32 -88t-97 -36q-84 0 -120.5 41.5zM208.5 535q12.5 16 12.5 44q0 24 -15.5 39.5t-37.5 15.5
q-19 0 -35.5 -10t-24.5 -21q1 -45 19.5 -64.5t41.5 -19.5q27 0 39.5 16z" />
    <glyph glyph-name="seven.superior" unicode="&#x2077;" horiz-adv-x="317" 
d="M291 822v-44l-137 -315h-85l127 284h-157v75h252z" />
    <glyph glyph-name="eight.superior" unicode="&#x2078;" horiz-adv-x="335" 
d="M65.5 489.5q-33.5 31.5 -33.5 79.5q0 27 12.5 45.5t27.5 29t24 12.5q-15 6 -33 24.5t-18 51.5q0 42 30 68t93 26t92.5 -26t29.5 -68q0 -33 -17.5 -52t-31.5 -24q9 -2 24 -12.5t27.5 -29t12.5 -45.5q0 -48 -34 -79.5t-103 -31.5t-102.5 31.5zM197.5 693q10.5 12 10.5 29
q0 40 -40 40q-17 0 -28 -10t-11 -31q0 -17 10 -28.5t29 -11.5t29.5 12zM207 535.5q12 14.5 12 36.5q0 25 -14.5 39.5t-36.5 14.5t-36.5 -14.5t-14.5 -39.5q0 -21 14 -36t37 -15q27 0 39 14.5z" />
    <glyph glyph-name="nine.superior" unicode="&#x2079;" horiz-adv-x="341" 
d="M55 468v62q27 -8 53 -8q38 0 73.5 20t40.5 75q-28 -26 -83 -26q-51 0 -83 29.5t-32 81.5q0 53 32 88.5t97 35.5q84 0 120.5 -41.5t36.5 -127.5q0 -119 -56.5 -158.5t-139.5 -39.5q-35 0 -59 9zM197.5 660q17.5 10 25.5 21q0 85 -67 85q-25 0 -35.5 -19t-10.5 -42
t14.5 -39t30.5 -16q25 0 42.5 10z" />
    <glyph glyph-name="zero.inferior" unicode="&#x2080;" horiz-adv-x="379" 
d="M75.5 -110q-37.5 46 -37.5 138t37.5 138t114.5 46t114 -46t37 -138t-37 -138t-114 -46t-114.5 46zM239 -65q22 26 22 93q0 68 -22 94t-49 26t-49 -26t-22 -94q0 -67 22 -93t49 -26t49 26z" />
    <glyph glyph-name="one.inferior" unicode="&#x2081;" horiz-adv-x="239" 
d="M173 210v-359h-84v258l-47 -29v86l69 44h62z" />
    <glyph glyph-name="two.inferior" unicode="&#x2082;" horiz-adv-x="331" 
d="M288 -74v-75h-238v45q59 43 103.5 94.5t44.5 100.5q0 23 -17 37.5t-43 14.5q-40 0 -85 -32v73q49 30 102 30q66 0 97.5 -30.5t31.5 -73.5q0 -47 -34 -96t-85 -88h123z" />
    <glyph glyph-name="three.inferior" unicode="&#x2083;" horiz-adv-x="327" 
d="M49 -129v70q23 -13 44 -20.5t45 -7.5q28 0 46.5 13t18.5 38q0 22 -18.5 34.5t-47.5 12.5h-39v59h40q20 0 33.5 10.5t13.5 32.5q0 14 -15 23.5t-38 9.5q-38 0 -74 -19v66q40 21 86 21q58 0 92.5 -27.5t34.5 -69.5q0 -22 -9.5 -38t-21.5 -24.5t-18 -9.5q28 -14 47 -34
t19 -59q0 -47 -38 -76.5t-101 -29.5q-46 0 -100 25z" />
    <glyph glyph-name="four.inferior" unicode="&#x2084;" horiz-adv-x="333" 
d="M305 3v-66h-49v-86h-81v86h-148v67l167 206h62v-207h49zM175 3v91l-74 -91h74z" />
    <glyph glyph-name="five.inferior" unicode="&#x2085;" horiz-adv-x="321" 
d="M60 -131v71q17 -11 39.5 -18.5t45.5 -7.5q59 0 59 47q0 31 -18 43t-45 12q-25 0 -57 -16l-32 42l19 168h195v-69h-134l-8 -70q26 7 59 7q42 0 74 -26t32 -87q0 -65 -34 -91.5t-87 -26.5q-66 0 -108 22z" />
    <glyph glyph-name="six.inferior" unicode="&#x2086;" horiz-adv-x="341" 
d="M58.5 -112.5q-36.5 41.5 -36.5 127.5q0 120 56.5 159.5t139.5 39.5q27 0 59 -8v-64q-30 9 -54 9q-36 0 -72 -20.5t-42 -74.5q31 26 84 26q52 0 83.5 -29.5t31.5 -82.5q0 -52 -32 -88t-97 -36q-84 0 -120.5 41.5zM208.5 -77q12.5 16 12.5 44q0 24 -15.5 39.5t-37.5 15.5
q-19 0 -35.5 -10t-24.5 -21q1 -45 19.5 -64.5t41.5 -19.5q27 0 39.5 16z" />
    <glyph glyph-name="seven.inferior" unicode="&#x2087;" horiz-adv-x="317" 
d="M291 210v-44l-137 -315h-85l127 284h-157v75h252z" />
    <glyph glyph-name="eight.inferior" unicode="&#x2088;" horiz-adv-x="335" 
d="M65.5 -122.5q-33.5 31.5 -33.5 79.5q0 27 12.5 45.5t27.5 29t24 12.5q-15 6 -33 24.5t-18 51.5q0 42 30 68t93 26t92.5 -26t29.5 -68q0 -33 -17.5 -52t-31.5 -24q9 -2 24 -12.5t27.5 -29t12.5 -45.5q0 -48 -34 -79.5t-103 -31.5t-102.5 31.5zM197.5 81q10.5 12 10.5 29
q0 40 -40 40q-17 0 -28 -10t-11 -31q0 -17 10 -28.5t29 -11.5t29.5 12zM207 -76.5q12 14.5 12 36.5q0 25 -14.5 39.5t-36.5 14.5t-36.5 -14.5t-14.5 -39.5q0 -21 14 -36t37 -15q27 0 39 14.5z" />
    <glyph glyph-name="nine.inferior" unicode="&#x2089;" horiz-adv-x="341" 
d="M55 -144v62q27 -8 53 -8q38 0 73.5 20t40.5 75q-28 -26 -83 -26q-51 0 -83 29.5t-32 81.5q0 53 32 88.5t97 35.5q84 0 120.5 -41.5t36.5 -127.5q0 -119 -56.5 -158.5t-139.5 -39.5q-35 0 -59 9zM197.5 48q17.5 10 25.5 21q0 85 -67 85q-25 0 -35.5 -19t-10.5 -42
t14.5 -39t30.5 -16q25 0 42.5 10z" />
    <glyph glyph-name="colonmonetary" unicode="&#x20a1;" horiz-adv-x="667" 
d="M387 83q98 0 190 54v-99q-46 -23 -100.5 -35.5t-106.5 -12.5q-32 0 -69 5l-15 -28h-77l24 44q-31 11 -56 27l-41 -71h-77l67 116q-73 87 -73 251q0 344 317 344q37 0 77 -7.5t74 -22.5l-6 -12h6l-291 -505q25 -21 52 -31l303 548h77l-311 -563q22 -2 36 -2zM189 193
l230 399l-35 -6q-112 0 -164.5 -60t-52.5 -193q0 -87 22 -140z" />
    <glyph glyph-name="franc" unicode="&#x20a3;" horiz-adv-x="552" 
d="M189 574v-199h278v-94h-278v-110h83v-70h-83v-101h-110v101h-75v70h75v496h428v-93h-318z" />
    <glyph glyph-name="lira" unicode="&#x20a4;" horiz-adv-x="600" 
d="M265 552.5q-30 -28.5 -30 -71.5v-81h181v-79h-181v-39h181v-80h-181v-100l43 -9q76 -19 118 -20q55 0 106 25v-94q-43 -25 -93 -25q-27 0 -60 5.5t-64 11.5q-42 9 -70 13.5t-57 4.5q-61 0 -108 -29v96q20 11 38.5 15.5t45.5 7.5v98h-84v80h84v39h-84v79h84v88
q0 49 21.5 91.5t69 69.5t121.5 27q76 0 156 -43v-99q-65 47 -139 47q-68 0 -98 -28.5z" />
    <glyph glyph-name="uni20A6" unicode="&#x20a6;" horiz-adv-x="723" 
d="M716 290h-72v-290h-99l-211 290h-150v-290h-105v290h-72v70h72v307h106l222 -307h132v307h105v-307h72v-70zM283 360l-99 136v-136h99zM539 290h-82l82 -113v113z" />
    <glyph glyph-name="peseta" unicode="&#x20a7;" horiz-adv-x="640" 
d="M632 409h-54q-14 -82 -74.5 -126t-160.5 -44h-154v-239h-110v409h-63v69h63v189h264q109 0 170 -48t68 -141h51v-69zM437.5 365.5q29.5 32.5 29.5 86.5q0 56 -29.5 89t-108.5 33h-140v-241h140q79 0 108.5 32.5z" />
    <glyph glyph-name="uni20A9" unicode="&#x20a9;" horiz-adv-x="965" 
d="M881 392h43v-69h-64l-98 -323h-110l-101 323h-111l-102 -323h-111l-98 323h-98v69h77l-83 275h119l77 -275h146l81 275h95l82 -275h145l76 275h119zM530 392l-35 109l-34 -109h69zM346 323h-106l52 -184zM751 323h-105l54 -183z" />
    <glyph glyph-name="dong" unicode="&#x20ab;" horiz-adv-x="423" 
d="M30 302q0 60 24 102t61.5 63t79.5 21q51 0 82 -12v55h-81v73h81v57h90v-57h47v-73h-47v-280q0 -33 -18.5 -61.5t-56.5 -46.5t-93 -18q-169 0 -169 177zM277 248v152q-31 14 -59 14q-44 0 -70.5 -28.5t-26.5 -79.5q0 -39 13.5 -62.5t32 -33.5t33.5 -10q77 0 77 48zM44 75
h324v-74h-324v74z" />
    <glyph glyph-name="Euro" unicode="&#x20ac;" horiz-adv-x="690" 
d="M231.5 47.5q-77.5 55.5 -102.5 171.5h-80v70h71q-2 30 -2 45t2 45h-71v70h80q25 116 102.5 171.5t196.5 55.5q103 0 207 -42v-93q-98 43 -198 43q-82 0 -131.5 -32.5t-69.5 -102.5h283v-70h-297q-2 -28 -2 -45t2 -45h297v-70h-283q20 -70 69.5 -102.5t131.5 -32.5
q102 0 198 42v-93q-106 -41 -207 -41q-119 0 -196.5 55.5z" />
    <glyph glyph-name="uni20AD" unicode="&#x20ad;" horiz-adv-x="642" 
d="M251 284l-61 -67v-217h-111v349h-60v69h60v249h111v-249h62l206 249h140l-226 -249h131v-69h-161l278 -349h-145zM190 343l5 6h-5v-6z" />
    <glyph glyph-name="uni20B1" unicode="&#x20b1;" horiz-adv-x="635" 
d="M632 467h-50v-11q0 -30 -4 -51h54v-69h-79q-29 -47 -82 -72t-128 -25h-154v-239h-110v336h-63v69h63v62h-63v69h63v131h264q91 0 148.5 -33t78.5 -98h62v-69zM437.5 365.5q29.5 32.5 29.5 86.5q0 56 -29.5 89t-108.5 33h-140v-241h140q79 0 108.5 32.5z" />
    <glyph glyph-name="uni20B2" unicode="&#x20b2;" horiz-adv-x="695" 
d="M616 49q-99 -51 -209 -60v-88h-90v90q-129 14 -196.5 99t-67.5 244q0 158 67.5 243t196.5 98v76h90v-74q97 -6 184 -45v-106q-61 29 -110 44.5t-99 15.5q-111 0 -164.5 -60t-53.5 -192t53.5 -192t161.5 -60q73 0 127 20v159h-140v94h250v-306z" />
    <glyph glyph-name="uni20B5" unicode="&#x20b5;" horiz-adv-x="625" 
d="M214.5 526q-52.5 -60 -52.5 -193t53 -191.5t167 -58.5q98 0 190 54v-99q-80 -39 -167 -46v-91h-90v91q-267 26 -267 342q0 315 267 342v75h90v-75q81 -7 167 -47v-99q-96 56 -193 56q-112 0 -164.5 -60z" />
    <glyph glyph-name="uni20B9" unicode="&#x20b9;" horiz-adv-x="509" 
d="M470 574h-58q23 -44 23 -108q0 -72 -39 -126t-106 -69l177 -271h-137l-155 252h-110v90h124q130 0 130 117q0 57 -26.5 86t-85.5 29h-142v93h405v-93z" />
    <glyph glyph-name="uni20BA" unicode="&#x20ba;" horiz-adv-x="547" 
d="M482 137v-99q-46 -23 -100.5 -35.5t-106.5 -12.5q-121 0 -196 51v165l-58 -44v82l58 45v49l-58 -44v82l58 45v246h111v-160l98 76v-86l-98 -75v-48l98 76v-85l-98 -75v-189q41 -19 101 -19q98 2 191 55z" />
    <glyph glyph-name="uni20BC" unicode="&#x20bc;" horiz-adv-x="706" 
d="M568 590.5q59 -69.5 59 -192.5v-405h-113v404q0 157 -118 181v-579h-90v579q-121 -23 -121 -181v-404h-106v405q0 124 59.5 194t167.5 81v91h90v-92q113 -12 172 -81.5z" />
    <glyph glyph-name="uni20BD" unicode="&#x20bd;" horiz-adv-x="635" 
d="M520 613.5q62 -53.5 62 -157.5t-62.5 -160.5t-176.5 -56.5h-154v-78h95v-70h-95v-91h-110v91h-63v70h63v102h-63v70h63v334h264q115 0 177 -53.5zM437.5 365.5q29.5 32.5 29.5 86.5q0 56 -29.5 89t-108.5 33h-140v-241h140q79 0 108.5 32.5z" />
    <glyph glyph-name="uni2116" unicode="&#x2116;" horiz-adv-x="1083" 
d="M87 667h101l311 -503v503h96v-667h-100l-313 504v-504h-95v667zM717 226.5q-44 47.5 -44 137.5t44 138.5t126 48.5t126.5 -48.5t44.5 -138.5t-44 -137.5t-127 -47.5q-82 0 -126 47.5zM906.5 281.5q22.5 20.5 22.5 82.5t-22.5 83.5t-63.5 21.5q-40 0 -62 -21.5t-22 -83.5
t22 -82.5t62 -20.5q41 0 63.5 20.5zM680 132h327v-81h-327v81z" />
    <glyph glyph-name="uni2120" unicode="&#x2120;" horiz-adv-x="717" 
d="M60 357v51q41 -30 98 -30q31 0 52 10t21 35t-18.5 36.5t-57.5 23.5q-48 14 -73 32.5t-25 60.5t30 69t87 27q46 0 86 -21v-49q-39 22 -79 22q-34 0 -53.5 -12t-19.5 -36q0 -17 15.5 -26t49.5 -20q34 -9 56 -19.5t38 -32t16 -56.5q0 -42 -33 -67t-87 -25q-56 0 -103 27z
M333 667h53l104 -153l104 153h52v-333h-51v254l-105 -152l-106 152v-254h-51v333z" />
    <glyph glyph-name="trademark" unicode="&#x2122;" horiz-adv-x="762" 
d="M160 619h-111v48h274v-48h-112v-285h-51v285zM374 667h52l104 -152l104 152h53v-333h-51v254l-106 -153l-105 153v-254h-51v333z" />
    <glyph glyph-name="uni2153" unicode="&#x2153;" horiz-adv-x="728" 
d="M173 673v-359h-84v258l-47 -29v86l69 44h62zM511 685h85l-407 -707h-85zM474 21v70q23 -13 44 -20.5t45 -7.5q28 0 46.5 13t18.5 38q0 22 -18.5 34.5t-47.5 12.5h-39v59h40q20 0 33.5 10.5t13.5 32.5q0 14 -15 23.5t-38 9.5q-38 0 -74 -19v66q40 21 86 21
q58 0 92.5 -27.5t34.5 -69.5q0 -22 -9.5 -38t-21.5 -24.5t-18 -9.5q28 -14 47 -34t19 -59q0 -47 -38 -76.5t-101 -29.5q-46 0 -100 25z" />
    <glyph glyph-name="oneeighth" unicode="&#x215b;" horiz-adv-x="724" 
d="M173 673v-359h-84v258l-47 -29v86l69 44h62zM476 685h85l-407 -707h-85zM438.5 27.5q-33.5 31.5 -33.5 79.5q0 27 12.5 45.5t27.5 29t24 12.5q-15 6 -33 24.5t-18 51.5q0 42 30 68t93 26t92.5 -26t29.5 -68q0 -33 -17.5 -52t-31.5 -24q9 -2 24 -12.5t27.5 -29t12.5 -45.5
q0 -48 -34 -79.5t-103 -31.5t-102.5 31.5zM570.5 231q10.5 12 10.5 29q0 40 -40 40q-17 0 -28 -10t-11 -31q0 -17 10 -28.5t29 -11.5t29.5 12zM580 73.5q12 14.5 12 36.5q0 25 -14.5 39.5t-36.5 14.5t-36.5 -14.5t-14.5 -39.5q0 -21 14 -36t37 -15q27 0 39 14.5z" />
    <glyph glyph-name="threeeighths" unicode="&#x215c;" horiz-adv-x="794" 
d="M49 339v70q23 -13 44 -20.5t45 -7.5q28 0 46.5 13t18.5 38q0 22 -18.5 34.5t-47.5 12.5h-39v59h40q20 0 33.5 10.5t13.5 32.5q0 14 -15 23.5t-38 9.5q-38 0 -74 -19v66q40 21 86 21q58 0 92.5 -27.5t34.5 -69.5q0 -22 -9.5 -38t-21.5 -24.5t-18 -9.5q28 -14 47 -34
t19 -59q0 -47 -38 -76.5t-101 -29.5q-46 0 -100 25zM544 685h85l-407 -707h-85zM508.5 27.5q-33.5 31.5 -33.5 79.5q0 27 12.5 45.5t27.5 29t24 12.5q-15 6 -33 24.5t-18 51.5q0 42 30 68t93 26t92.5 -26t29.5 -68q0 -33 -17.5 -52t-31.5 -24q9 -2 24 -12.5t27.5 -29
t12.5 -45.5q0 -48 -34 -79.5t-103 -31.5t-102.5 31.5zM640.5 231q10.5 12 10.5 29q0 40 -40 40q-17 0 -28 -10t-11 -31q0 -17 10 -28.5t29 -11.5t29.5 12zM650 73.5q12 14.5 12 36.5q0 25 -14.5 39.5t-36.5 14.5t-36.5 -14.5t-14.5 -39.5q0 -21 14 -36t37 -15q27 0 39 14.5z
" />
    <glyph glyph-name="fiveeighths" unicode="&#x215d;" horiz-adv-x="807" 
d="M60 329v71q17 -11 39.5 -18.5t45.5 -7.5q59 0 59 47q0 31 -18 43t-45 12q-25 0 -57 -16l-32 42l19 168h195v-69h-134l-8 -70q26 7 59 7q42 0 74 -26t32 -87q0 -65 -34 -91.5t-87 -26.5q-66 0 -108 22zM559 685h85l-407 -707h-85zM521.5 27.5q-33.5 31.5 -33.5 79.5
q0 27 12.5 45.5t27.5 29t24 12.5q-15 6 -33 24.5t-18 51.5q0 42 30 68t93 26t92.5 -26t29.5 -68q0 -33 -17.5 -52t-31.5 -24q9 -2 24 -12.5t27.5 -29t12.5 -45.5q0 -48 -34 -79.5t-103 -31.5t-102.5 31.5zM653.5 231q10.5 12 10.5 29q0 40 -40 40q-17 0 -28 -10t-11 -31
q0 -17 10 -28.5t29 -11.5t29.5 12zM663 73.5q12 14.5 12 36.5q0 25 -14.5 39.5t-36.5 14.5t-36.5 -14.5t-14.5 -39.5q0 -21 14 -36t37 -15q27 0 39 14.5z" />
    <glyph glyph-name="seveneighths" unicode="&#x215e;" horiz-adv-x="779" 
d="M291 673v-44l-137 -315h-85l127 284h-157v75h252zM513 685h85l-407 -707h-85zM492.5 27.5q-33.5 31.5 -33.5 79.5q0 27 12.5 45.5t27.5 29t24 12.5q-15 6 -33 24.5t-18 51.5q0 42 30 68t93 26t92.5 -26t29.5 -68q0 -33 -17.5 -52t-31.5 -24q9 -2 24 -12.5t27.5 -29
t12.5 -45.5q0 -48 -34 -79.5t-103 -31.5t-102.5 31.5zM624.5 231q10.5 12 10.5 29q0 40 -40 40q-17 0 -28 -10t-11 -31q0 -17 10 -28.5t29 -11.5t29.5 12zM634 73.5q12 14.5 12 36.5q0 25 -14.5 39.5t-36.5 14.5t-36.5 -14.5t-14.5 -39.5q0 -21 14 -36t37 -15q27 0 39 14.5z
" />
    <glyph glyph-name="partialdiff" unicode="&#x2202;" horiz-adv-x="594" 
d="M164.5 26q-52.5 34 -76 86t-23.5 110q0 104 62.5 156t166.5 52q38 0 75 -10.5t57 -23.5q-12 111 -76.5 149.5t-134.5 38.5q-29 0 -63 -6v91q40 7 72 7q65 0 133.5 -26.5t121 -109t52.5 -234.5q0 -156 -58.5 -235t-174.5 -79q-81 0 -133.5 34zM389 128.5q40 44.5 40 179.5
q-52 43 -131 43q-64 0 -97.5 -34.5t-33.5 -93.5q0 -46 26.5 -92.5t104.5 -46.5q51 0 91 44.5z" />
    <glyph glyph-name="uni2206" unicode="&#x2206;" horiz-adv-x="729" 
d="M334 667h60l308 -667h-675zM568 88l-204 446l-204 -446h408z" />
    <glyph glyph-name="product" unicode="&#x220f;" horiz-adv-x="722" 
d="M164 433h-129v84h652v-84h-130v-564h-84v564h-225v-564h-84v564z" />
    <glyph glyph-name="summation" unicode="&#x2211;" horiz-adv-x="568" 
d="M77 84l160 249l-160 251v83h427v-84h-326l160 -250l-160 -249h326v-84h-427v84z" />
    <glyph glyph-name="minus" unicode="&#x2212;" horiz-adv-x="571" 
d="M85 296h402v-77h-402v77z" />
    <glyph glyph-name="uni2215" unicode="&#x2215;" horiz-adv-x="428" 
d="M374 685h85l-407 -707h-85z" />
    <glyph glyph-name="uni2219" unicode="&#x2219;" horiz-adv-x="326" 
d="M113 321h98v-97h-98v97z" />
    <glyph glyph-name="radical" unicode="&#x221a;" horiz-adv-x="737" 
d="M245 316h-151v68h208l109 -279l219 562h84l-262 -667h-80z" />
    <glyph glyph-name="infinity" unicode="&#x221e;" horiz-adv-x="750" 
d="M136 232q-33 16 -56 50.5t-23 87.5t23 88t56 51t65 16q92 0 172 -108q36 47 77.5 77.5t94.5 30.5q32 0 65.5 -16t56 -51t22.5 -88t-22.5 -87.5t-56 -50.5t-65.5 -16q-53 0 -94.5 30t-77.5 77q-36 -47 -77.5 -77t-94.5 -30q-32 0 -65 16zM340 370q-67 100 -134 100
q-10 0 -29 -6t-38 -28t-19 -66q0 -61 32 -80t54 -19q68 0 134 99zM570 276.5q19 5.5 38 27.5t19 66t-19 66t-38.5 28t-28.5 6q-39 0 -72 -28.5t-63 -71.5q68 -99 135 -99q10 0 29 5.5z" />
    <glyph glyph-name="integral" unicode="&#x222b;" horiz-adv-x="342" 
d="M10 -119v77l23 -1q30 0 49 5.5t32.5 28.5t13.5 73v441q0 110 49.5 148t115.5 38q13 0 40 -3v-78q-12 2 -23 2q-30 0 -48.5 -5.5t-32 -28.5t-13.5 -72v-442q0 -110 -49.5 -148t-115.5 -38q-27 0 -41 3z" />
    <glyph glyph-name="approxequal" unicode="&#x2248;" horiz-adv-x="619" 
d="M99 391q41 40 94 40q25 0 51.5 -7.5t63.5 -22.5q40 -15 65 -22.5t50 -7.5q53 0 95 42v-75q-43 -40 -93 -40q-26 0 -52.5 7.5t-63.5 22.5q-40 15 -65 22.5t-50 7.5q-54 0 -95 -41v74zM99 227q41 40 94 40q25 0 51.5 -7.5t63.5 -22.5q40 -15 65 -22.5t50 -7.5q53 0 95 42
v-76q-41 -40 -93 -40q-26 0 -53 8t-62 23q-39 15 -65 22.5t-51 7.5q-53 0 -95 -41v74z" />
    <glyph glyph-name="notequal" unicode="&#x2260;" horiz-adv-x="611" 
d="M144 33l55 97h-87v77h130l52 91h-182v77h227l73 129l56 -33l-55 -96h86v-77h-131l-52 -91h183v-77h-226l-74 -128z" />
    <glyph glyph-name="lessequal" unicode="&#x2264;" horiz-adv-x="572" 
d="M108 383v62l358 146v-77l-248 -99l248 -101v-76zM108 202h358v-72h-358v72z" />
    <glyph glyph-name="greaterequal" unicode="&#x2265;" horiz-adv-x="572" 
d="M108 314l247 101l-247 99v77l358 -146v-62l-358 -145v76zM108 202h358v-72h-358v72z" />
    <glyph glyph-name="lozenge" unicode="&#x25ca;" horiz-adv-x="636" 
d="M64 333l254 370l255 -370l-255 -369zM492 333l-174 255l-173 -255l173 -254z" />
    <glyph glyph-name="uniE194" unicode="&#xe194;" horiz-adv-x="778" 
d="M218.5 38q-78.5 46 -124.5 124.5t-46 171.5q0 92 46 170.5t125 124.5t171 46q93 0 171.5 -46t124.5 -124.5t46 -170.5q0 -93 -46 -171.5t-124.5 -124.5t-171.5 -46t-171.5 46zM539.5 76q68.5 40 108.5 108.5t40 149.5t-40 149.5t-108.5 108.5t-149.5 40t-149.5 -40
t-108.5 -108.5t-40 -149.5t40 -149.5t108.5 -108.5t149.5 -40t149.5 40zM271 528h145q67 0 103 -32t36 -93q0 -60 -36 -93t-103 -33h-85v-138h-60v389zM409 331q86 0 86 72t-86 72h-78v-144h78z" />
    <glyph glyph-name="uniF6C3" unicode="&#xf6c3;" 
d="M-195 -133q24 8 32 30t7 54h83q1 -65 -34 -101.5t-88 -42.5v60z" />
    <glyph glyph-name="uniF6C9" unicode="&#xf6c9;" horiz-adv-x="248" 
d="M118 840h87l-86 -116h-59z" />
    <glyph glyph-name="uniF6CA" unicode="&#xf6ca;" horiz-adv-x="417" 
d="M94 845h70l44 -63l44 63h70l-92 -121h-44z" />
    <glyph glyph-name="uniF6CB" unicode="&#xf6cb;" horiz-adv-x="395" 
d="M76 813h92v-89h-92v89zM230 813h92v-89h-92v89z" />
    <glyph glyph-name="uniF6CE" unicode="&#xf6ce;" horiz-adv-x="233" 
d="M46 840h87l58 -116h-59z" />
    <glyph glyph-name="uniF6CF" unicode="&#xf6cf;" horiz-adv-x="387" 
d="M119 840h86l-86 -116h-59zM248 840h87l-86 -116h-60z" />
    <glyph glyph-name="uniF6D0" unicode="&#xf6d0;" horiz-adv-x="403" 
d="M86 796h234v-64h-234v64z" />
    <glyph glyph-name="i.loclTRK" horiz-adv-x="260" 
d="M74 677h112v-95h-112v95zM77 499h105l1 -499h-106v499z" />
    <glyph glyph-name="zero.zero" horiz-adv-x="655" 
d="M602 332q0 -173 -67.5 -258.5t-207.5 -85.5q-59 0 -108 17l-44 -103h-83l60 140q-99 83 -99 290q0 344 274 344q51 0 93 -12l39 92h84l-53 -124q112 -78 112 -300zM199 150l182 425q-25 7 -54 7q-72 0 -117.5 -51.5t-45.5 -198.5q0 -123 35 -182zM408.5 100.5
q35.5 18.5 59 73.5t23.5 158q0 136 -45 198l-188 -436q29 -12 69 -12q46 0 81.5 18.5z" />
    <glyph glyph-name="zero.dnom" horiz-adv-x="379" 
d="M75.5 38q-37.5 46 -37.5 138t37.5 138t114.5 46t114 -46t37 -138t-37 -138t-114 -46t-114.5 46zM239 83q22 26 22 93q0 68 -22 94t-49 26t-49 -26t-22 -94q0 -67 22 -93t49 -26t49 26z" />
    <glyph glyph-name="one.dnom" horiz-adv-x="239" 
d="M173 360v-359h-84v258l-47 -29v86l69 44h62z" />
    <glyph glyph-name="two.dnom" horiz-adv-x="331" 
d="M288 76v-75h-238v45q59 43 103.5 94.5t44.5 100.5q0 23 -17 37.5t-43 14.5q-40 0 -85 -32v73q49 30 102 30q66 0 97.5 -30.5t31.5 -73.5q0 -47 -34 -96t-85 -88h123z" />
    <glyph glyph-name="three.dnom" horiz-adv-x="327" 
d="M49 21v70q23 -13 44 -20.5t45 -7.5q28 0 46.5 13t18.5 38q0 22 -18.5 34.5t-47.5 12.5h-39v59h40q20 0 33.5 10.5t13.5 32.5q0 14 -15 23.5t-38 9.5q-38 0 -74 -19v66q40 21 86 21q58 0 92.5 -27.5t34.5 -69.5q0 -22 -9.5 -38t-21.5 -24.5t-18 -9.5q28 -14 47 -34t19 -59
q0 -47 -38 -76.5t-101 -29.5q-46 0 -100 25z" />
    <glyph glyph-name="four.dnom" horiz-adv-x="333" 
d="M305 153v-66h-49v-86h-81v86h-148v67l167 206h62v-207h49zM175 153v91l-74 -91h74z" />
    <glyph glyph-name="five.dnom" horiz-adv-x="321" 
d="M60 16v71q17 -11 39.5 -18.5t45.5 -7.5q59 0 59 47q0 31 -18 43t-45 12q-25 0 -57 -16l-32 42l19 168h195v-69h-134l-8 -70q26 7 59 7q42 0 74 -26t32 -87q0 -65 -34 -91.5t-87 -26.5q-66 0 -108 22z" />
    <glyph glyph-name="six.dnom" horiz-adv-x="341" 
d="M58.5 37.5q-36.5 41.5 -36.5 127.5q0 120 56.5 159.5t139.5 39.5q27 0 59 -8v-64q-30 9 -54 9q-36 0 -72 -20.5t-42 -74.5q31 26 84 26q52 0 83.5 -29.5t31.5 -82.5q0 -52 -32 -88t-97 -36q-84 0 -120.5 41.5zM208.5 73q12.5 16 12.5 44q0 24 -15.5 39.5t-37.5 15.5
q-19 0 -35.5 -10t-24.5 -21q1 -45 19.5 -64.5t41.5 -19.5q27 0 39.5 16z" />
    <glyph glyph-name="seven.dnom" horiz-adv-x="317" 
d="M291 360v-44l-137 -315h-85l127 284h-157v75h252z" />
    <glyph glyph-name="eight.dnom" horiz-adv-x="335" 
d="M65.5 27.5q-33.5 31.5 -33.5 79.5q0 27 12.5 45.5t27.5 29t24 12.5q-15 6 -33 24.5t-18 51.5q0 42 30 68t93 26t92.5 -26t29.5 -68q0 -33 -17.5 -52t-31.5 -24q9 -2 24 -12.5t27.5 -29t12.5 -45.5q0 -48 -34 -79.5t-103 -31.5t-102.5 31.5zM197.5 231q10.5 12 10.5 29
q0 40 -40 40q-17 0 -28 -10t-11 -31q0 -17 10 -28.5t29 -11.5t29.5 12zM207 73.5q12 14.5 12 36.5q0 25 -14.5 39.5t-36.5 14.5t-36.5 -14.5t-14.5 -39.5q0 -21 14 -36t37 -15q27 0 39 14.5z" />
    <glyph glyph-name="nine.dnom" horiz-adv-x="341" 
d="M55 3v62q27 -8 53 -8q38 0 73.5 20t40.5 75q-28 -26 -83 -26q-51 0 -83 29.5t-32 81.5q0 53 32 88.5t97 35.5q84 0 120.5 -41.5t36.5 -127.5q0 -119 -56.5 -158.5t-139.5 -39.5q-35 0 -59 9zM197.5 195q17.5 10 25.5 21q0 85 -67 85q-25 0 -35.5 -19t-10.5 -42t14.5 -39
t30.5 -16q25 0 42.5 10z" />
    <glyph glyph-name="zero.numr" horiz-adv-x="379" 
d="M75.5 356q-37.5 46 -37.5 138t37.5 138t114.5 46t114 -46t37 -138t-37 -138t-114 -46t-114.5 46zM239 401q22 26 22 93q0 68 -22 94t-49 26t-49 -26t-22 -94q0 -67 22 -93t49 -26t49 26z" />
    <glyph glyph-name="one.numr" horiz-adv-x="239" 
d="M173 673v-359h-84v258l-47 -29v86l69 44h62z" />
    <glyph glyph-name="two.numr" horiz-adv-x="331" 
d="M288 394v-75h-238v45q59 43 103.5 94.5t44.5 100.5q0 23 -17 37.5t-43 14.5q-40 0 -85 -32v73q49 30 102 30q66 0 97.5 -30.5t31.5 -73.5q0 -47 -34 -96t-85 -88h123z" />
    <glyph glyph-name="three.numr" horiz-adv-x="327" 
d="M49 339v70q23 -13 44 -20.5t45 -7.5q28 0 46.5 13t18.5 38q0 22 -18.5 34.5t-47.5 12.5h-39v59h40q20 0 33.5 10.5t13.5 32.5q0 14 -15 23.5t-38 9.5q-38 0 -74 -19v66q40 21 86 21q58 0 92.5 -27.5t34.5 -69.5q0 -22 -9.5 -38t-21.5 -24.5t-18 -9.5q28 -14 47 -34
t19 -59q0 -47 -38 -76.5t-101 -29.5q-46 0 -100 25z" />
    <glyph glyph-name="four.numr" horiz-adv-x="333" 
d="M305 466v-66h-49v-86h-81v86h-148v67l167 206h62v-207h49zM175 466v91l-74 -91h74z" />
    <glyph glyph-name="five.numr" horiz-adv-x="321" 
d="M60 329v71q17 -11 39.5 -18.5t45.5 -7.5q59 0 59 47q0 31 -18 43t-45 12q-25 0 -57 -16l-32 42l19 168h195v-69h-134l-8 -70q26 7 59 7q42 0 74 -26t32 -87q0 -65 -34 -91.5t-87 -26.5q-66 0 -108 22z" />
    <glyph glyph-name="six.numr" horiz-adv-x="341" 
d="M58.5 355.5q-36.5 41.5 -36.5 127.5q0 120 56.5 159.5t139.5 39.5q27 0 59 -8v-64q-30 9 -54 9q-36 0 -72 -20.5t-42 -74.5q31 26 84 26q52 0 83.5 -29.5t31.5 -82.5q0 -52 -32 -88t-97 -36q-84 0 -120.5 41.5zM208.5 391q12.5 16 12.5 44q0 24 -15.5 39.5t-37.5 15.5
q-19 0 -35.5 -10t-24.5 -21q1 -45 19.5 -64.5t41.5 -19.5q27 0 39.5 16z" />
    <glyph glyph-name="seven.numr" horiz-adv-x="317" 
d="M291 673v-44l-137 -315h-85l127 284h-157v75h252z" />
    <glyph glyph-name="eight.numr" horiz-adv-x="335" 
d="M65.5 345.5q-33.5 31.5 -33.5 79.5q0 27 12.5 45.5t27.5 29t24 12.5q-15 6 -33 24.5t-18 51.5q0 42 30 68t93 26t92.5 -26t29.5 -68q0 -33 -17.5 -52t-31.5 -24q9 -2 24 -12.5t27.5 -29t12.5 -45.5q0 -48 -34 -79.5t-103 -31.5t-102.5 31.5zM197.5 549q10.5 12 10.5 29
q0 40 -40 40q-17 0 -28 -10t-11 -31q0 -17 10 -28.5t29 -11.5t29.5 12zM207 391.5q12 14.5 12 36.5q0 25 -14.5 39.5t-36.5 14.5t-36.5 -14.5t-14.5 -39.5q0 -21 14 -36t37 -15q27 0 39 14.5z" />
    <glyph glyph-name="nine.numr" horiz-adv-x="341" 
d="M55 321v62q27 -8 53 -8q38 0 73.5 20t40.5 75q-28 -26 -83 -26q-51 0 -83 29.5t-32 81.5q0 53 32 88.5t97 35.5q84 0 120.5 -41.5t36.5 -127.5q0 -119 -56.5 -158.5t-139.5 -39.5q-35 0 -59 9zM197.5 513q17.5 10 25.5 21q0 85 -67 85q-25 0 -35.5 -19t-10.5 -42
t14.5 -39t30.5 -16q25 0 42.5 10z" />
    <glyph glyph-name="periodcentered.loclCAT.case" horiz-adv-x="326" 
d="M113 321h98v-97h-98v97z" />
    <glyph glyph-name="periodcentered.loclCAT" horiz-adv-x="326" 
d="M113 321h98v-97h-98v97z" />
    <glyph glyph-name="uni0326.alt" 
d="M-195 -133q24 8 32 30t7 54h83q1 -65 -34 -101.5t-88 -42.5v60z" />
    <glyph glyph-name="uni0308.case" 
d="M-331 738h101v-88h-101v88zM-167 738h100v-88h-100v88z" />
    <glyph glyph-name="uni0307.case" 
d="M-201 745h97v-88h-97v88z" />
    <glyph glyph-name="gravecomb.case" 
d="M-201 664h99l52 -114h-62z" />
    <glyph glyph-name="acutecomb.case" 
d="M-140 673h109l-98 -114h-59z" />
    <glyph glyph-name="uni030B.case" 
d="M-269 775h86l-86 -115h-59zM-140 775h87l-86 -115h-60z" />
    <glyph glyph-name="uni0302.case" 
d="M-248 819h87l83 -121h-69l-58 65l-58 -65h-69z" />
    <glyph glyph-name="uni030C.case" 
d="M-324 783h73l44 -66l44 66h73l-77 -121h-76z" />
    <glyph glyph-name="uni0306.case" 
d="M-312 672q-36 32 -48 90h65q10 -27 29.5 -43.5t47.5 -16.5q53 0 76 60h65q-8 -57 -45.5 -89.5t-95.5 -32.5t-94 32z" />
    <glyph glyph-name="uni030A.case" 
d="M-293.5 654q-26.5 23 -26.5 70t26.5 70t82.5 23q109 0 109 -93t-109 -93q-56 0 -82.5 23zM-171 690.5q11 9.5 11 33.5t-11 33.5t-40 9.5q-30 0 -41 -9.5t-11 -33.5t11 -33.5t41 -9.5q29 0 40 9.5z" />
    <glyph glyph-name="tildecomb.case" 
d="M-414 673q-2 16 -2 24q0 44 27.5 72.5t64.5 28.5q24 0 43.5 -9.5t43.5 -27.5q19 -14 30.5 -20.5t24.5 -6.5q14 0 22 10t8 29q0 9 -1 14h60q1 -6 1 -17q0 -45 -27.5 -73.5t-69.5 -28.5q-27 0 -48 10.5t-44 28.5q-17 13 -26.5 18.5t-19.5 5.5q-14 0 -23 -11.5t-9 -31.5
q0 -10 1 -15h-56z" />
    <glyph glyph-name="uni0304.case" 
d="M-328 735h252v-71h-252v71z" />
    <glyph glyph-name="hookabovecomb.case" 
d="M-146 706q17 0 27 7.5t10 16.5q0 25 -46 25q-13 0 -28 -3v50q15 3 43 3q43 0 72 -17t29 -55q0 -24 -14 -39t-41 -19v-23h-52v54z" />
    <glyph glyph-name="uni030F.case" 
d="M-336 672h99l52 -114h-62zM-192 673h99l52 -114h-62z" />
    <glyph glyph-name="uni0311.case" 
d="M-122.5 724.5q37.5 -32.5 45.5 -89.5h-65q-23 60 -76 60q-28 0 -47.5 -16.5t-29.5 -43.5h-65q12 58 48 90t94 32t95.5 -32.5z" />
    <glyph glyph-name="uni031B.case" 
d="M-250 586q31 0 53 17t22 42v31h69v-40q0 -55 -40 -84.5t-101 -30.5z" />
    <glyph glyph-name="dotbelowcomb.case" 
d="M-141 -50h91v-88h-91v88z" />
    <glyph glyph-name="uni0324.case" 
d="M-331 -41h101v-88h-101v88zM-167 -41h100v-88h-100v88z" />
    <glyph glyph-name="uni0326.case" 
d="M-195 -133q24 8 32 30t7 54h83q1 -65 -34 -101.5t-88 -42.5v60z" />
    <glyph glyph-name="uni0327.case" 
d="M-126 -5h74l-58 -121h-101z" />
    <glyph glyph-name="uni0328.case" 
d="M-252 -156.5q-27 22.5 -27 65.5q0 30 24.5 58t67.5 45l86 -12q-94 -43 -94 -82q0 -19 8.5 -26.5t25.5 -7.5q28 0 60 30v-73q-17 -9 -33.5 -14.5t-40.5 -5.5q-50 0 -77 22.5z" />
    <glyph glyph-name="uni032E.case" 
d="M-312 -123q-36 32 -48 90h65q10 -27 29.5 -43.5t47.5 -16.5q53 0 76 60h65q-8 -57 -45.5 -89.5t-95.5 -32.5t-94 32z" />
    <glyph glyph-name="uni0331.case" 
d="M-328 -59h252v-71h-252v71z" />
    <glyph glyph-name="uni03060301" 
d="M-292 574q-36 32 -48 90h65q10 -27 29.5 -43.5t47.5 -16.5q53 0 76 60h65q-8 -57 -45.5 -89.5t-95.5 -32.5t-94 32zM-187 796h109l-98 -114h-59z" />
    <glyph glyph-name="uni03060300" 
d="M-321 574q-36 32 -48 90h65q10 -27 29.5 -43.5t47.5 -16.5q53 0 76 60h65q-8 -57 -45.5 -89.5t-95.5 -32.5t-94 32zM-351 792h104l53 -118h-62z" />
    <glyph glyph-name="uni03060309" 
d="M-312 574q-36 32 -48 90h65q10 -27 29.5 -43.5t47.5 -16.5q53 0 76 60h65q-8 -57 -45.5 -89.5t-95.5 -32.5t-94 32zM-246 729q17 0 27 7.5t10 16.5q0 25 -46 25q-13 0 -28 -3v50q15 3 43 3q43 0 72 -17t29 -55q0 -24 -14 -39t-41 -19v-23h-52v54z" />
    <glyph glyph-name="uni03060303" 
d="M-314 574q-36 32 -48 90h65q10 -27 29.5 -43.5t47.5 -16.5q53 0 76 60h65q-8 -57 -45.5 -89.5t-95.5 -32.5t-94 32zM-377 698q-2 16 -2 24q0 44 27.5 72.5t64.5 28.5q24 0 43.5 -9.5t43.5 -27.5q19 -14 30.5 -20.5t24.5 -6.5q14 0 22 10t8 29q0 9 -1 14h60q1 -6 1 -17
q0 -45 -27.5 -73.5t-69.5 -28.5q-27 0 -48 10.5t-44 28.5q-17 13 -26.5 18.5t-19.5 5.5q-14 0 -23 -11.5t-9 -31.5q0 -10 1 -15h-56z" />
    <glyph glyph-name="uni03020301" 
d="M-323 685h87l83 -121h-69l-58 65l-58 -65h-69zM-133 751h109l-98 -114h-59z" />
    <glyph glyph-name="uni03020300" 
d="M-280 685h87l83 -121h-69l-58 65l-58 -65h-69zM-509 746h99l52 -114h-62z" />
    <glyph glyph-name="uni03020309" 
d="M-248 676h87l83 -121h-69l-58 65l-58 -65h-69zM-84 665q17 0 27 7.5t10 16.5q0 25 -46 25q-13 0 -28 -3v50q15 3 43 3q43 0 72 -17t29 -55q0 -24 -14 -39t-41 -19v-23h-52v54z" />
    <glyph glyph-name="uni03020303" 
d="M-233 671h87l83 -121h-69l-58 65l-58 -65h-69zM-351 709q-2 16 -2 24q0 44 27.5 72.5t64.5 28.5q24 0 43.5 -9.5t43.5 -27.5q19 -14 30.5 -20.5t24.5 -6.5q14 0 22 10t8 29q0 9 -1 14h60q1 -6 1 -17q0 -45 -27.5 -73.5t-69.5 -28.5q-27 0 -48 10.5t-44 28.5
q-17 13 -26.5 18.5t-19.5 5.5q-14 0 -23 -11.5t-9 -31.5q0 -10 1 -15h-56z" />
    <glyph glyph-name="IJacute" horiz-adv-x="733" 
d="M79 667h111v-667h-111v667zM310 26v106q64 -47 120 -47q58 0 85.5 28.5t27.5 93.5v460h111v-467q0 -115 -58.5 -162.5t-143.5 -47.5q-75 0 -142 36zM144 841h109l-98 -114h-59zM614 841h109l-98 -114h-59z" />
    <glyph glyph-name="ijacute" horiz-adv-x="528" 
d="M74 499h105l1 -499h-106v499zM257 -109q53 1 74.5 21.5t21.5 67.5v519h102v-517q0 -175 -198 -175v84zM146 677h105l-95 -118h-62zM424 677h105l-95 -118h-62z" />
    <glyph glyph-name="caronalt" horiz-adv-x="289" 
d="M136 703h99l-87 -196h-86z" />
    </font>
</defs>
</svg>
