<?xml version="1.0" standalone="no"?>
<!DOCTYPE svg PUBLIC "-//W3C//DTD SVG 1.1//EN" "http://www.w3.org/Graphics/SVG/1.1/DTD/svg11.dtd" >
<svg xmlns="http://www.w3.org/2000/svg" xmlns:xlink="http://www.w3.org/1999/xlink" version="1.1">
<metadata>
Created by FontForge 20170731 at Wed Jul  5 12:22:31 2017
 By Aleksey,,,
Copyright 2011 The Maven Pro Project Authors (http://www.vissol.co.uk/mavenpro/), with Reserved Font Name "Maven Pro".
</metadata>
<defs>
<font id="MavenPro-Regular" horiz-adv-x="569" >
  <font-face 
    font-family="Maven Pro"
    font-weight="400"
    font-stretch="normal"
    units-per-em="1000"
    panose-1="0 0 5 0 0 0 0 0 0 0"
    ascent="800"
    descent="-200"
    x-height="499"
    cap-height="667"
    bbox="-441 -217 1206 1030"
    underline-thickness="50"
    underline-position="-150"
    unicode-range="U+000D-FB02"
  />
<missing-glyph horiz-adv-x="500" 
 />
    <glyph glyph-name="fi" unicode="fi" horiz-adv-x="594" 
d="M126 433h-86v66h86v27q0 83 29 123.5t62.5 50t69.5 9.5q27 0 48 -6v-64q-20 4 -36 4q-32 0 -52 -6t-34.5 -31t-14.5 -79v-28h137v-66h-137v-433h-72v433zM434 667h80v-79h-80v79zM438 499h72v-499h-72v499z" />
    <glyph glyph-name="fl" unicode="fl" horiz-adv-x="587" 
d="M126 433h-86v66h86v27q0 83 29 123.5t62.5 50t69.5 9.5q27 0 48 -6v-64q-20 4 -36 4q-32 0 -52 -6t-34.5 -31t-14.5 -79v-28h137v-66h-137v-433h-72v433zM435 0v689h72v-689h-72z" />
    <glyph glyph-name=".notdef" horiz-adv-x="500" 
 />
    <glyph glyph-name=".null" horiz-adv-x="0" 
 />
    <glyph glyph-name="nonmarkingreturn" unicode="&#xd;" horiz-adv-x="290" 
 />
    <glyph glyph-name="NULL" horiz-adv-x="0" 
 />
    <glyph glyph-name="NULL" horiz-adv-x="0" 
 />
    <glyph glyph-name="space" unicode=" " horiz-adv-x="290" 
 />
    <glyph glyph-name="exclam" unicode="!" horiz-adv-x="372" 
d="M152 667h72l-7 -499h-58zM148 80h80v-80h-80v80z" />
    <glyph glyph-name="quotedbl" unicode="&#x22;" horiz-adv-x="381" 
d="M81 676h83l-17 -201h-48zM215 676h83l-18 -201h-48z" />
    <glyph glyph-name="numbersign" unicode="#" horiz-adv-x="591" 
d="M153 126h-82v60h92l27 159h-91v60h102l20 118h61l-20 -118h132l21 118h61l-21 -118h72v-60h-82l-28 -159h81v-60h-91l-18 -107h-61l18 107h-132l-19 -107h-61zM356 186l28 159h-133l-27 -159h132z" />
    <glyph glyph-name="dollar" unicode="$" horiz-adv-x="555" 
d="M454 57.5q-41 -52.5 -131 -64.5v-86h-72v83q-58 3 -95 15.5t-91 41.5v78q36 -30 90.5 -49.5t121.5 -19.5q73 0 109 31t36 84q0 39 -21 64.5t-50 40t-87 36.5q-62 21 -98.5 40t-62.5 56t-26 98q0 37 17.5 74t56.5 63.5t100 32.5v77h72v-78q34 -3 60 -12.5t73 -32.5v-74
q-7 4 -37.5 21.5t-63 25.5t-70.5 8q-69 0 -102 -28.5t-33 -71.5q0 -39 17.5 -63t47 -39t83.5 -33q62 -21 101.5 -41.5t67.5 -58.5t28 -97q0 -69 -41 -121.5z" />
    <glyph glyph-name="percent" unicode="%" horiz-adv-x="761" 
d="M48 493q0 184 142 184q70 0 105.5 -46.5t35.5 -137.5t-35.5 -137.5t-105.5 -46.5q-142 0 -142 184zM244.5 387.5q25.5 28.5 25.5 105.5t-25.5 105.5t-54.5 28.5t-55 -28.5t-26 -105.5t26 -105.5t55 -28.5t54.5 28.5zM430 179q0 184 142 184q70 0 105.5 -46.5t35.5 -137.5
t-35.5 -137.5t-105.5 -46.5q-142 0 -142 184zM626.5 73.5q25.5 28.5 25.5 105.5t-25.5 105.5t-54.5 28.5t-55 -28.5t-26 -105.5t26 -105.5t55 -28.5t54.5 28.5zM546 685h68l-407 -707h-68z" />
    <glyph glyph-name="ampersand" unicode="&#x26;" horiz-adv-x="640" 
d="M512 0l-61 73q-38 -35 -87 -58t-101 -23q-71 0 -118 31t-69 75.5t-22 85.5q0 53 31 105.5t104 95.5q-66 82 -66 138q0 41 20.5 75.5t55 55t75.5 20.5q42 0 77 -19.5t55 -53.5t20 -74q0 -51 -31 -86.5t-97 -73.5l152 -181q21 38 39 104h65q-7 -36 -22 -77.5t-38 -79.5
l112 -133h-94zM217.5 578.5q-24.5 -23.5 -24.5 -56.5q0 -17 21.5 -50t46.5 -62q59 32 78.5 59t19.5 57q0 33 -24 54.5t-59 21.5q-34 0 -58.5 -23.5zM342 80q36 18 65 45l-175 209q-62 -37 -84.5 -75.5t-22.5 -72.5q0 -23 12.5 -51.5t44 -50.5t84.5 -22q40 0 76 18z" />
    <glyph glyph-name="quotesingle" unicode="'" horiz-adv-x="249" 
d="M81 676h83l-17 -201h-48z" />
    <glyph glyph-name="parenleft" unicode="(" horiz-adv-x="345" 
d="M127.5 70.5q-34.5 107.5 -34.5 234.5t34.5 235t76.5 184h76q-37 -62 -76 -172.5t-39 -246.5t39 -247t76 -171h-76q-42 76 -76.5 183.5z" />
    <glyph glyph-name="parenright" unicode=")" horiz-adv-x="345" 
d="M142 60q39 110 39 246q0 135 -39.5 246.5t-76.5 171.5h77q42 -76 76.5 -183.5t34.5 -234.5t-34.5 -235t-76.5 -184h-77q38 63 77 173z" />
    <glyph glyph-name="asterisk" unicode="*" horiz-adv-x="411" 
d="M187 550l-76 -55l-27 48l87 38l-87 39l27 46l76 -54l-10 91h54l-8 -91l75 54l27 -46l-86 -39l86 -38l-27 -48l-75 55l8 -90h-54z" />
    <glyph glyph-name="plus" unicode="+" horiz-adv-x="551" 
d="M245 269h-148v60h148v148h60v-148h147v-60h-147v-147h-60v147z" />
    <glyph glyph-name="comma" unicode="," horiz-adv-x="313" 
d="M148 84h82l-84 -196h-72z" />
    <glyph glyph-name="hyphen" unicode="-" horiz-adv-x="464" 
d="M79 333h305v-70h-305v70z" />
    <glyph glyph-name="period" unicode="." horiz-adv-x="260" 
d="M80 100h100v-100h-100v100z" />
    <glyph glyph-name="slash" unicode="/" horiz-adv-x="404" 
d="M353 756h66l-368 -854h-65z" />
    <glyph glyph-name="zero" unicode="0" horiz-adv-x="646" 
d="M126 75q-66 86 -66 256t66 256t197 86q263 0 263 -342t-263 -342q-131 0 -197 86zM418 75q41 20 68.5 81t27.5 175t-27.5 175t-69 81t-94.5 20t-94.5 -20t-69 -81t-27.5 -175t27.5 -175t68.5 -81t95 -20t95 20z" />
    <glyph glyph-name="one" unicode="1" horiz-adv-x="451" 
d="M236 592l-133 -88v85l123 78h82v-667h-72v592z" />
    <glyph glyph-name="two" unicode="2" horiz-adv-x="581" 
d="M498 72v-72h-421v63q72 53 149 124.5t133.5 152.5t56.5 148q0 49 -34.5 82.5t-122.5 33.5q-93 0 -175 -58v79q84 51 181 51q78 0 128 -27t72.5 -69.5t22.5 -91.5q0 -93 -90 -204t-210 -212h310z" />
    <glyph glyph-name="three" unicode="3" horiz-adv-x="583" 
d="M81 34v74q78 -44 169 -44q89 0 136 33t47 95t-48 95t-139 33h-73v69h76q73 0 111.5 27.5t38.5 79.5t-40.5 80t-117.5 28q-74 0 -144 -35v73q72 34 152 34q78 0 127.5 -25.5t72 -66.5t22.5 -88q0 -44 -19 -74t-43 -47t-24 -14t33.5 -18.5t60 -59.5t26.5 -93
q0 -52 -25 -96.5t-80 -73t-141 -28.5q-96 0 -178 42z" />
    <glyph glyph-name="four" unicode="4" horiz-adv-x="591" 
d="M362 200h-324v77l315 390h81v-400h95v-67h-95v-200h-72v200zM362 267v297l-244 -297h244z" />
    <glyph glyph-name="five" unicode="5" horiz-adv-x="566" 
d="M444.5 369.5q61.5 -46.5 61.5 -165.5t-61.5 -165.5t-150.5 -46.5q-115 0 -191 41v75q28 -18 74.5 -32t111.5 -14q63 0 95.5 21t41.5 51t9 70q0 84 -39.5 112t-106.5 28q-47 0 -82 -7t-55 -15t-20 -9l-45 46l34 308h343v-71h-281l-17 -197q60 17 128 17q89 0 150.5 -46.5z
" />
    <glyph glyph-name="six" unicode="6" horiz-adv-x="583" 
d="M458 370.5q61 -56.5 61 -153.5q0 -56 -23 -107.5t-74 -84.5t-130 -33q-227 0 -227 313q0 153 52.5 235.5t120 109t131.5 26.5q53 0 97 -13v-67q-50 12 -89 12q-38 0 -88 -18t-94 -68t-55 -140q78 45 152 45q105 0 166 -56.5zM416 112.5q31 52.5 31 105.5q0 68 -40 105
t-115 37q-49 0 -88.5 -17t-66.5 -39q2 -99 22 -152.5t52.5 -72.5t80.5 -19q93 0 124 52.5z" />
    <glyph glyph-name="seven" unicode="7" horiz-adv-x="574" 
d="M525 667v-67l-289 -600h-80l288 595h-374v72h455z" />
    <glyph glyph-name="eight" unicode="8" horiz-adv-x="582" 
d="M160 22.5q-52 30.5 -75.5 77t-23.5 98.5q0 55 25.5 91t57.5 55t32 16t-25 15t-45 49.5t-20 78.5q0 45 21 84.5t67.5 64t117.5 24.5q72 0 118 -24.5t67 -64t21 -84.5q0 -48 -19.5 -79.5t-43.5 -48.5t-24 -14t31 -16.5t56 -56t25 -90.5q0 -52 -23.5 -99t-75 -77t-132.5 -30
q-80 0 -132 30.5zM390.5 418.5q35.5 30.5 35.5 84.5q0 58 -38.5 80t-95.5 22t-95.5 -22t-38.5 -80q0 -54 35.5 -84.5t98.5 -30.5t98.5 30.5zM419 105.5q32 45.5 32 92.5q0 60 -41 92t-118 32t-118 -32t-41 -92q0 -46 32 -92t127 -46t127 45.5z" />
    <glyph glyph-name="nine" unicode="9" horiz-adv-x="587" 
d="M519 363q0 -153 -52.5 -235.5t-120 -109t-131.5 -26.5q-53 0 -97 13v67q50 -12 89 -12q38 0 88 18t94 68t55 140q-77 -45 -152 -45q-105 0 -166 56.5t-61 153.5q0 56 23 107.5t74 84.5t130 33q227 0 227 -313zM177 345q40 -37 115 -37q49 0 88.5 17t66.5 39
q-2 99 -22 152.5t-52.5 72.5t-80.5 19q-93 0 -124 -52.5t-31 -105.5q0 -68 40 -105z" />
    <glyph glyph-name="colon" unicode=":" horiz-adv-x="391" 
d="M158 448h80v-80h-80v80zM158 128h80v-80h-80v80z" />
    <glyph glyph-name="semicolon" unicode=";" horiz-adv-x="285" 
d="M105 448h100v-100h-100v100zM104 84h92l-84 -196h-72z" />
    <glyph glyph-name="less" unicode="&#x3c;" horiz-adv-x="660" 
d="M120 235v68l412 187v-80l-328 -141l328 -142v-79z" />
    <glyph glyph-name="equal" unicode="=" horiz-adv-x="638" 
d="M127 410h385v-69h-385v69zM127 256h385v-70h-385v70z" />
    <glyph glyph-name="greater" unicode="&#x3e;" horiz-adv-x="649" 
d="M132 127l327 142l-327 141v80l411 -187v-68l-411 -187v79z" />
    <glyph glyph-name="question" unicode="?" horiz-adv-x="485" 
d="M195 217q0 49 13 82.5t31 54t47 44.5q31 25 45 43.5t14 48.5q0 55 -33 84t-98 29q-43 0 -77.5 -13.5t-56.5 -30.5v78q0 1 20 11t51 18.5t68 8.5q72 0 135 -39.5t63 -145.5q0 -48 -18.5 -75.5t-54.5 -58.5q-26 -23 -41 -39t-25.5 -42t-10.5 -63v-44h-72v49zM191 80h80v-80
h-80v80z" />
    <glyph glyph-name="at" unicode="@" horiz-adv-x="913" 
d="M260 -114.5q-75 34.5 -126 109t-51 186.5q0 119 63.5 215.5t163 151t201.5 54.5q72 0 148 -34t129 -107t53 -183q0 -70 -20 -126t-57 -88t-86 -32q-67 0 -93 49q-47 -49 -144 -49q-70 0 -110 30.5t-40 83.5q0 56 46 100.5t171 44.5q36 0 74 -5q1 7 1 21q0 37 -18.5 58
t-78.5 21q-70 0 -125 -21l8 58q60 20 117 20q76 0 115.5 -34.5t39.5 -101.5q0 -40 -10 -104q-1 -12 -4 -35.5t-3 -37.5q0 -31 13 -47t45 -16q27 0 55 23.5t47 71t19 113.5q0 93 -44 158.5t-111 98t-137 32.5q-99 0 -188.5 -51t-145 -139t-55.5 -193q0 -120 55 -185.5
t122 -87t118 -21.5q124 0 210 49l-9 -45q-84 -40 -209 -40q-74 0 -149 34.5zM543 120.5q23 30.5 26.5 64.5t4.5 44q-27 4 -66 4q-159 0 -159 -87q0 -56 92 -56q79 0 102 30.5z" />
    <glyph glyph-name="A" unicode="A" horiz-adv-x="643" 
d="M466 208h-288l-80 -208h-78l266 667h72l265 -667h-77zM439 277l-117 305l-117 -305h234z" />
    <glyph glyph-name="B" unicode="B" horiz-adv-x="628" 
d="M535 295.5q33 -40.5 33 -106.5q0 -97 -63 -143t-179 -46h-241v667h221q222 0 222 -179q0 -48 -16 -72.5t-34 -39.5t-23 -19q47 -21 80 -61.5zM157 378h165q61 0 97.5 21t36.5 84q0 65 -35.5 90t-107.5 25h-156v-220zM452 93.5q44 26.5 44 99.5q0 72 -45.5 94.5
t-121.5 22.5h-172v-243h175q76 0 120 26.5z" />
    <glyph glyph-name="C" unicode="C" horiz-adv-x="622" 
d="M132.5 78q-77.5 86 -77.5 256t77.5 256t231.5 86q102 0 203 -49v-69q-94 50 -195 50q-126 0 -184 -66t-58 -208q0 -143 57.5 -208.5t184.5 -65.5q106 0 195 49v-69q-102 -48 -203 -48q-154 0 -231.5 86z" />
    <glyph glyph-name="D" unicode="D" horiz-adv-x="667" 
d="M85 667h209q156 0 234.5 -83.5t78.5 -249.5q0 -334 -313 -334h-209v667zM289 68q127 0 185.5 64t58.5 202t-58.5 202t-185.5 64h-132v-532h132z" />
    <glyph glyph-name="E" unicode="E" horiz-adv-x="581" 
d="M85 667h421v-68h-349v-230h307v-70h-307v-231h349v-68h-421v667z" />
    <glyph glyph-name="F" unicode="F" horiz-adv-x="539" 
d="M85 667h409v-68h-337v-230h296v-70h-296v-299h-72v667z" />
    <glyph glyph-name="G" unicode="G" horiz-adv-x="687" 
d="M137.5 77q-77.5 87 -77.5 257t77.5 256t231.5 86q114 0 210 -45v-75q-55 24 -104 38t-98 14q-127 0 -186 -66.5t-59 -207.5q0 -142 59 -208.5t186 -66.5q80 0 153 24v190h-161v70h233v-301q-108 -52 -233 -52q-154 0 -231.5 87z" />
    <glyph glyph-name="H" unicode="H" horiz-adv-x="669" 
d="M85 667h72v-300h355v300h72v-667h-72v299h-355v-299h-72v667z" />
    <glyph glyph-name="I" unicode="I" horiz-adv-x="242" 
d="M85 667h72v-667h-72v667z" />
    <glyph glyph-name="J" unicode="J" horiz-adv-x="453" 
d="M45 27v75q57 -40 123 -40q68 0 98 33.5t30 109.5v462h72v-468q0 -116 -55.5 -161.5t-135.5 -45.5q-72 0 -132 35z" />
    <glyph glyph-name="K" unicode="K" horiz-adv-x="613" 
d="M229 301l-72 -79v-222h-72v667h72v-351l316 351h92l-286 -312l309 -355h-100z" />
    <glyph glyph-name="L" unicode="L" horiz-adv-x="523" 
d="M85 667h72v-597h341v-70h-413v667z" />
    <glyph glyph-name="M" unicode="M" horiz-adv-x="785" 
d="M700 667v-667h-72v550l-243 -341l-228 339v-548h-72v667h78l226 -347l233 347h78z" />
    <glyph glyph-name="N" unicode="N" horiz-adv-x="722" 
d="M637 667v-667h-81l-399 562v-562h-72v667h82l398 -562v562h72z" />
    <glyph glyph-name="O" unicode="O" horiz-adv-x="719" 
d="M135.5 76.5q-75.5 86.5 -75.5 256.5t75.5 256.5t223.5 86.5q149 0 224.5 -86.5t75.5 -256.5t-75.5 -256.5t-224.5 -86.5q-148 0 -223.5 86.5zM531 124q54 66 54 209q0 142 -54 208.5t-172 66.5q-117 0 -171 -66.5t-54 -208.5q0 -143 54 -209t171 -66q118 0 172 66z" />
    <glyph glyph-name="P" unicode="P" horiz-adv-x="613" 
d="M157 0h-72v667h237q112 0 171.5 -53t59.5 -153t-59.5 -153t-171.5 -53h-165v-255zM313 324q100 0 134 38t34 99t-34 99t-134 38h-156v-274h156z" />
    <glyph glyph-name="Q" unicode="Q" horiz-adv-x="719" 
d="M562.5 -14.5q17.5 -13.5 36.5 -13.5q14 0 26.5 4t32.5 16v-64q-34 -18 -67 -18q-41 0 -74.5 24.5t-57.5 67.5q-45 -12 -100 -12q-148 0 -223.5 86.5t-75.5 256.5t75.5 256.5t223.5 86.5q149 0 224.5 -86.5t75.5 -256.5q0 -226 -132 -304q18 -30 35.5 -43.5zM152 192.5
q18 -56.5 56 -89.5v50q26 20 53.5 33t66.5 13q95 0 163 -108q49 30 71.5 89t22.5 153q0 142 -54 208.5t-172 66.5q-117 0 -171 -66.5t-54 -208.5q0 -84 18 -140.5zM359 58q41 2 66 8q-20 34 -44.5 53t-60.5 19q-31 0 -54.5 -11.5t-45.5 -32.5q53 -36 139 -36z" />
    <glyph glyph-name="R" unicode="R" horiz-adv-x="631" 
d="M501 0l-174 269h-170v-269h-72v667h274q97 0 147 -49t50 -145q0 -77 -41 -130t-110 -66l181 -277h-85zM157 337h169q82 0 120 33t38 98q0 64 -30 97.5t-103 33.5h-194v-262z" />
    <glyph glyph-name="S" unicode="S" horiz-adv-x="555" 
d="M164 3q-41 13 -99 44v78q36 -30 90.5 -49.5t121.5 -19.5q73 0 109 31t36 84q0 39 -21 64.5t-50 40t-87 36.5q-62 21 -98.5 40t-62.5 56t-26 98q0 41 20.5 80t66 65t117.5 26q53 0 86.5 -10t88.5 -37v-74q-7 4 -37.5 21.5t-63 25.5t-70.5 8q-69 0 -102 -28.5t-33 -71.5
q0 -39 17.5 -63t47 -39t83.5 -33q62 -21 101.5 -41.5t67.5 -58.5t28 -97q0 -79 -52.5 -134t-168.5 -55q-69 0 -110 13z" />
    <glyph glyph-name="T" unicode="T" horiz-adv-x="583" 
d="M256 599h-236v68h543v-68h-235v-599h-72v599z" />
    <glyph glyph-name="U" unicode="U" horiz-adv-x="692" 
d="M153.5 63q-68.5 73 -68.5 209v395h72v-399q0 -210 189 -210q191 0 191 210v399h70v-395q0 -136 -68.5 -209t-192.5 -73t-192.5 73z" />
    <glyph glyph-name="V" unicode="V" horiz-adv-x="623" 
d="M603 667l-256 -667h-71l-256 667h77l218 -572l214 570z" />
    <glyph glyph-name="W" unicode="W" horiz-adv-x="976" 
d="M951 667l-215 -667h-73l-175 553l-175 -553h-74l-214 667h76l180 -569l171 569h72l174 -569l177 569h76z" />
    <glyph glyph-name="X" unicode="X" horiz-adv-x="589" 
d="M487 0l-194 275l-193 -275h-88l237 338l-231 329h86l189 -268l188 268h88l-232 -331l236 -336h-86z" />
    <glyph glyph-name="Y" unicode="Y" horiz-adv-x="598" 
d="M333 306v-306h-72v306l-249 361h87l197 -292l198 292h87z" />
    <glyph glyph-name="Z" unicode="Z" horiz-adv-x="609" 
d="M539 606l-386 -538h386v-68h-475v63l390 536h-380v68h465v-61z" />
    <glyph glyph-name="bracketleft" unicode="[" horiz-adv-x="383" 
d="M119 696h181v-68h-109v-676h109v-68h-181v812z" />
    <glyph glyph-name="backslash" unicode="\" horiz-adv-x="368" 
d="M-37 756h66l367 -854h-65z" />
    <glyph glyph-name="bracketright" unicode="]" horiz-adv-x="381" 
d="M84 -48h108v676h-108v68h180v-812h-180v68z" />
    <glyph glyph-name="asciicircum" unicode="^" horiz-adv-x="560" 
d="M238 690h55l104 -217h-60l-71 159l-72 -159h-60z" />
    <glyph glyph-name="underscore" unicode="_" horiz-adv-x="546" 
d="M0 -24h546v-44h-546v44z" />
    <glyph glyph-name="grave" unicode="`" horiz-adv-x="219" 
d="M46 679h73l57 -115h-47z" />
    <glyph glyph-name="a" unicode="a" horiz-adv-x="554" 
d="M425.5 467q48.5 -41 48.5 -119v-242q0 -72 -59 -96.5t-163 -24.5q-79 0 -135.5 35t-56.5 117q0 89 49 129.5t135 40.5q97 0 157 -35v59q0 112 -131 112q-43 0 -87 -12t-74 -36v72q30 19 81.5 30t102.5 11q84 0 132.5 -41zM370 59.5q31 10.5 31 42.5v112q-27 13 -63 20.5
t-75 7.5q-63 0 -97 -24t-34 -70q0 -52 40 -75.5t97 -23.5q70 0 101 10.5z" />
    <glyph glyph-name="b" unicode="b" 
d="M456.5 440.5q57.5 -66.5 57.5 -184.5q-1 -152 -70 -211.5t-164 -59.5q-200 0 -200 100v625h72v-232q31 12 69.5 20.5t64.5 8.5q113 0 170.5 -66.5zM402.5 106q35.5 55 35.5 150q0 86 -37 135.5t-115 49.5q-33 0 -68.5 -9t-65.5 -26v-304q0 -29 35 -40t83 -11
q97 0 132.5 55z" />
    <glyph glyph-name="c" unicode="c" horiz-adv-x="492" 
d="M122.5 48.5q-67.5 56.5 -67.5 201.5q0 144 67.5 201t166.5 57q75 0 148 -28v-69q-68 28 -140 28q-89 0 -129.5 -45t-40.5 -144q0 -100 40.5 -144.5t129.5 -44.5q75 0 140 28v-70q-70 -27 -148 -27q-99 0 -166.5 56.5z" />
    <glyph glyph-name="d" unicode="d" 
d="M489 710v-624q0 -51 -64.5 -76t-140.5 -25q-92 0 -160 59.5t-69 211.5q0 118 57.5 184.5t170.5 66.5q26 0 64.5 -8.5t69.5 -20.5v232h72zM417 406q-30 17 -65.5 26t-68.5 9q-78 0 -115 -49.5t-37 -135.5q0 -94 34 -149.5t123 -55.5q53 0 91 12t38 30v313z" />
    <glyph glyph-name="e" unicode="e" horiz-adv-x="547" 
d="M441 434q53 -74 51 -197h-364q0 -90 42 -138t120 -48q100 0 171 43v-74q-73 -35 -175 -35q-109 0 -170 67.5t-61 197.5q0 127 57.5 192.5t161.5 65.5q114 0 167 -74zM174 411.5q-34 -30.5 -43 -108.5h285q-5 70 -39.5 104.5t-102.5 34.5q-66 0 -100 -30.5z" />
    <glyph glyph-name="f" unicode="f" horiz-adv-x="375" 
d="M126 433h-86v66h86v27q0 83 29 123.5t62.5 50t69.5 9.5q27 0 48 -6v-64q-20 4 -36 4q-32 0 -52 -6t-34.5 -31t-14.5 -79v-28h137v-66h-137v-433h-72v433z" />
    <glyph glyph-name="g" unicode="g" 
d="M433.5 476.5q55.5 -30.5 55.5 -93.5v-404q0 -74 -48 -125.5t-169 -51.5q-34 0 -63.5 5.5t-51 11t-27.5 6.5v68q39 -11 68.5 -17t65.5 -6q91 0 122 30t31 77v37q-31 -12 -69.5 -20.5t-64.5 -8.5q-113 0 -170.5 66.5t-57.5 184.5q1 153 71 212t172 59q80 0 135.5 -30.5z
M168 100.5q37 -49.5 115 -49.5q33 0 68.5 9t65.5 26v287q0 39 -30.5 53.5t-82.5 14.5q-100 0 -136.5 -55t-36.5 -150q0 -86 37 -135.5z" />
    <glyph glyph-name="h" unicode="h" horiz-adv-x="575" 
d="M446 455.5q49 -52.5 49 -159.5v-296h-72v296q0 70 -32.5 108t-95.5 38q-70 0 -143 -40v-402h-72v720h72v-254q37 20 76.5 31t74.5 11q94 0 143 -52.5z" />
    <glyph glyph-name="i" unicode="i" horiz-adv-x="240" 
d="M80 667h80v-79h-80v79zM84 499h72v-499h-72v499z" />
    <glyph glyph-name="j" unicode="j" horiz-adv-x="268" 
d="M108 667h80v-79h-80v79zM10 -126q42 1 64 12.5t30 32.5t8 56v524h72v-528q0 -83 -43 -123.5t-131 -40.5v67z" />
    <glyph glyph-name="k" unicode="k" horiz-adv-x="511" 
d="M385 0l-233 236v-236h-72v689h72v-375l203 185h90l-245 -216l281 -283h-96z" />
    <glyph glyph-name="l" unicode="l" horiz-adv-x="232" 
d="M80 0v689h72v-689h-72z" />
    <glyph glyph-name="m" unicode="m" horiz-adv-x="883" 
d="M756.5 462q46.5 -46 46.5 -137v-325h-72v325q0 118 -134 118q-64 0 -121 -34q13 -35 13 -84v-325h-72v325q0 118 -134 118q-62 0 -131 -20v-423h-72v459q97 49 211 49q97 0 146 -41q75 41 168 41q105 0 151.5 -46z" />
    <glyph glyph-name="n" unicode="n" 
d="M291 508q105 0 151.5 -46t46.5 -137v-325h-72v325q0 118 -134 118q-62 0 -131 -20v-423h-72v459q97 49 211 49z" />
    <glyph glyph-name="o" unicode="o" 
d="M112.5 53q-57.5 68 -57.5 195q0 129 58.5 194.5t169.5 65.5q117 0 174 -69.5t57 -190.5q0 -124 -60 -193.5t-169 -69.5q-115 0 -172.5 68zM442 248q0 94 -37 144t-121 50q-157 0 -157 -194q0 -197 157 -197q158 0 158 197z" />
    <glyph glyph-name="p" unicode="p" 
d="M448 443.5q66 -64.5 66 -206.5q0 -117 -62 -184t-176 -67q-26 0 -60 8t-64 21v-232h-72v626q0 55 60.5 76.5t141.5 22.5q100 0 166 -64.5zM396.5 102q41.5 50 41.5 135q0 94 -34 149.5t-123 55.5q-54 0 -91.5 -12.5t-37.5 -33.5v-309q60 -35 124 -35q79 0 120.5 50z" />
    <glyph glyph-name="q" unicode="q" 
d="M437.5 481q51.5 -27 51.5 -92v-606h-72v232q-30 -13 -64 -21t-60 -8q-114 0 -176 67t-62 184q1 153 72 212t178 59q81 0 132.5 -27zM172.5 102q41.5 -50 120.5 -50q64 0 124 35v302q0 26 -36 39.5t-79 13.5q-99 0 -135 -55t-36 -150q0 -85 41.5 -135z" />
    <glyph glyph-name="r" unicode="r" horiz-adv-x="377" 
d="M80 459q38 16 100.5 32.5t129.5 16.5q10 0 32 -6v-64q-24 3 -48 3q-33 0 -61 -4t-81 -13v-424h-72v459z" />
    <glyph glyph-name="s" unicode="s" horiz-adv-x="456" 
d="M134 -5q-36 10 -79 32v76q51 -29 83.5 -40.5t77.5 -11.5q50 0 81.5 22t31.5 57q0 31 -19 46.5t-60 31.5l-26 11q-57 16 -88.5 29t-55 41t-23.5 76t25 80t65 47.5t84 15.5q40 0 67.5 -9t75.5 -30v-72q-50 25 -76.5 35t-62.5 10q-44 0 -75 -17.5t-31 -49.5
q0 -26 15.5 -42.5t39 -26t63.5 -20.5q50 -16 79.5 -29t52 -41.5t22.5 -76.5q0 -51 -26 -85.5t-67.5 -51.5t-86.5 -17q-51 0 -87 10z" />
    <glyph glyph-name="t" unicode="t" horiz-adv-x="363" 
d="M147 25.5q-35 33.5 -35 95.5v312h-87v66h87v141h72v-141h129v-66h-129v-289q0 -44 14 -64t52 -20q37 0 63 12v-68q-14 -5 -35.5 -8.5t-40.5 -3.5q-55 0 -90 33.5z" />
    <glyph glyph-name="u" unicode="u" horiz-adv-x="578" 
d="M134.5 36.5q-54.5 51.5 -54.5 146.5v316h72v-300q0 -76 33 -111.5t104 -35.5q70 0 103.5 35.5t33.5 111.5v300h72v-316q0 -95 -54.5 -146.5t-154.5 -51.5t-154.5 51.5z" />
    <glyph glyph-name="v" unicode="v" horiz-adv-x="566" 
d="M531 499l-212 -499h-73l-211 499h77l177 -420l170 420h72z" />
    <glyph glyph-name="w" unicode="w" horiz-adv-x="796" 
d="M761 499l-166 -499h-73l-125 414l-123 -414h-73l-166 499h76l130 -417l122 417h69l126 -418l132 418h71z" />
    <glyph glyph-name="x" unicode="x" horiz-adv-x="532" 
d="M405 0l-142 195l-147 -195h-81l186 251l-181 248h91l139 -189l142 189h83l-183 -247l185 -252h-92z" />
    <glyph glyph-name="y" unicode="y" horiz-adv-x="540" 
d="M505 499l-214 -548q-31 -80 -72.5 -112t-84.5 -32q-24 0 -47 9v66q20 -9 43 -9q43 0 67 31t45 94l-207 501h82l158 -407l158 407h72z" />
    <glyph glyph-name="z" unicode="z" horiz-adv-x="455" 
d="M410 436l-282 -372h282v-64h-365v65l279 372h-272v62h358v-63z" />
    <glyph glyph-name="braceleft" unicode="{" horiz-adv-x="373" 
d="M192.5 -71.5q-38.5 38.5 -38.5 111.5v156q0 54 -63 73v49q26 7 44.5 24t18.5 48v156q0 73 38.5 112t111.5 39h8v-68h-8q-40 -2 -59 -18t-19 -60v-161q0 -58 -58 -97q58 -39 58 -97v-161q0 -43 19 -59.5t59 -18.5h8v-67h-8q-73 0 -111.5 38.5z" />
    <glyph glyph-name="bar" unicode="|" horiz-adv-x="443" 
d="M185 665h72v-764h-72v764z" />
    <glyph glyph-name="braceright" unicode="}" horiz-adv-x="368" 
d="M70 -43h6q40 2 59 18.5t19 59.5v161q0 57 59 97q-59 40 -59 97v161q0 44 -18.5 60t-59.5 18h-6v68h6q73 0 111.5 -39t38.5 -112v-156q0 -31 18.5 -48t44.5 -24v-49q-63 -19 -63 -73v-156q0 -73 -38.5 -111.5t-111.5 -38.5h-6v67z" />
    <glyph glyph-name="asciitilde" unicode="~" horiz-adv-x="500" 
d="M98 292q31 39 69 39q18 0 37.5 -7.5t44.5 -21.5q30 -15 48 -22t36 -7q38 0 69 39v-60q-31 -39 -69 -39q-18 0 -36 7t-48 22q-27 14 -45 21t-36 7q-39 0 -70 -39v61z" />
    <glyph glyph-name="uni00A0" unicode="&#xa0;" horiz-adv-x="290" 
 />
    <glyph glyph-name="exclamdown" unicode="&#xa1;" horiz-adv-x="362" 
d="M148 499h80v-79h-80v79zM159 331h58l7 -499h-72z" />
    <glyph glyph-name="cent" unicode="&#xa2;" horiz-adv-x="492" 
d="M167.5 455q-40.5 -45 -40.5 -144q0 -100 40.5 -144.5t129.5 -44.5q75 0 140 28v-70q-54 -21 -120 -26v-54h-72v56q-83 11 -136.5 69.5t-53.5 185.5t53.5 186t136.5 69v62h72v-60q63 -5 120 -27v-69q-68 28 -140 28q-89 0 -129.5 -45z" />
    <glyph glyph-name="sterling" unicode="&#xa3;" horiz-adv-x="555" 
d="M241 574q-32 -33 -32 -81v-146h201v-66h-201v-203q15 -2 76 -14q31 -6 65 -11.5t62 -5.5q48 0 88 15v-73q-40 -15 -88 -15q-25 0 -55 4.5t-47.5 8t-23.5 4.5q-44 9 -71.5 13.5t-56.5 4.5q-56 0 -107 -24v73q39 19 86 22v201h-86v66h86v143q0 49 21.5 91t69 68.5
t121.5 26.5q79 0 151 -39v-73q-68 43 -145 43q-82 0 -114 -33z" />
    <glyph glyph-name="currency" unicode="&#xa4;" horiz-adv-x="494" 
d="M398 233l46 -47l-45 -45l-47 47q-48 -32 -103 -32q-58 0 -105 33l-49 -48l-45 45l48 49q-32 48 -32 104q0 55 32 103l-48 48l45 45l48 -47q49 34 106 34q56 0 104 -32l46 45l45 -45l-45 -46q33 -47 33 -105q0 -57 -34 -106zM169.5 253q31.5 -33 79.5 -33q47 0 78.5 33
t31.5 86t-31.5 86t-78.5 33q-48 0 -79.5 -33t-31.5 -86t31.5 -86z" />
    <glyph glyph-name="yen" unicode="&#xa5;" horiz-adv-x="602" 
d="M267 138h-157v60h157v94h-157v60h125l-217 315h88l197 -287l197 287h88l-217 -315h125v-60h-157v-94h157v-60h-157v-138h-72v138z" />
    <glyph glyph-name="brokenbar" unicode="&#xa6;" horiz-adv-x="443" 
d="M185 665h72v-318h-72v318zM257 -99h-72v318h72v-318z" />
    <glyph glyph-name="section" unicode="&#xa7;" horiz-adv-x="543" 
d="M64 28v74q66 -41 166 -41q51 0 95 13.5t44 53.5q0 20 -8 34t-36.5 28t-85.5 27q-59 14 -97 28.5t-61 41t-23 68.5q0 80 91 109q-40 25 -40 70q0 37 20 69t65 52.5t115 20.5q76 0 145 -30v-71q-64 34 -139 34q-51 0 -92.5 -14t-41.5 -50q0 -14 6.5 -26t33.5 -26t85 -27
q56 -13 95 -29.5t65 -48t26 -81.5q0 -37 -25 -63.5t-61 -38.5q35 -29 35 -77q0 -64 -54.5 -100t-151.5 -36q-99 0 -171 36zM420 307q0 20 -8.5 34t-36.5 28t-85 27q-48 11 -86 24q-74 -14 -74 -65q0 -12 6.5 -21.5t34 -21.5t85.5 -25q66 -14 107 -36q57 17 57 56z" />
    <glyph glyph-name="dieresis" unicode="&#xa8;" horiz-adv-x="385" 
d="M79 643h79v-79h-79v79zM227 643h79v-79h-79v79z" />
    <glyph glyph-name="copyright" unicode="&#xa9;" horiz-adv-x="778" 
d="M219 38q-79 46 -125 124.5t-46 170.5q0 93 46 171.5t124.5 124.5t171.5 46t171.5 -46t124.5 -124.5t46 -171.5q0 -92 -46 -170.5t-124.5 -124.5t-171.5 -46q-92 0 -171 46zM543.5 68.5q70.5 41.5 111.5 111.5t41 153t-41 153.5t-111.5 112t-153.5 41.5t-153 -41.5
t-111.5 -112t-41.5 -153.5t41.5 -153t111.5 -111.5t153 -41.5t153.5 41.5zM219 333q0 200 180 200q63 0 119 -22v-40q-53 22 -114 22q-74 0 -108.5 -38.5t-34.5 -121.5t34.5 -121.5t108.5 -38.5q59 0 114 23v-40q-56 -22 -119 -22q-180 0 -180 199z" />
    <glyph glyph-name="ordfeminine" unicode="&#xaa;" horiz-adv-x="394" 
d="M113 408q-37 19 -37 70q0 50 30.5 70.5t85.5 20.5q26 0 47 -4t27 -6q0 77 -78 77q-41 0 -84 -17v39q43 17 86 17q116 0 116 -115v-84q0 -50 -36.5 -68.5t-77.5 -18.5q-42 0 -79 19zM266 477v46q-6 2 -26.5 6t-39.5 4q-36 0 -60 -10.5t-24 -43.5q0 -53 76 -53q74 0 74 51z
" />
    <glyph glyph-name="guillemotleft" unicode="&#xab;" horiz-adv-x="553" 
d="M31 255l169 190h97l-178 -190l178 -191h-97zM221 255l169 190h97l-178 -190l178 -191h-97z" />
    <glyph glyph-name="logicalnot" unicode="&#xac;" horiz-adv-x="622" 
d="M459 258h-362v66h428v-166h-66v100z" />
    <glyph glyph-name="uni00AD" unicode="&#xad;" horiz-adv-x="600" 
d="M79 333h305v-70h-305v70z" />
    <glyph glyph-name="registered" unicode="&#xae;" horiz-adv-x="778" 
d="M219 38q-79 46 -125 124.5t-46 170.5q0 93 46 171.5t124.5 124.5t171.5 46t171.5 -46t124.5 -124.5t46 -171.5q0 -92 -46 -170.5t-124.5 -124.5t-171.5 -46q-92 0 -171 46zM543.5 68.5q70.5 41.5 111.5 111.5t41 153t-41 153.5t-111.5 112t-153.5 41.5t-153 -41.5
t-111.5 -112t-41.5 -153.5t41.5 -153t111.5 -111.5t153 -41.5t153.5 41.5zM266 528h143q64 0 98.5 -28.5t34.5 -84.5q0 -58 -30 -82t-60 -31l107 -164h-50l-101 158h-100v-158h-42v390zM407 336q55 0 73.5 21t18.5 55t-18.5 55t-73.5 21h-99v-152h99z" />
    <glyph glyph-name="macron" unicode="&#xaf;" horiz-adv-x="403" 
d="M86 629h234v-53h-234v53z" />
    <glyph glyph-name="degree" unicode="&#xb0;" horiz-adv-x="387" 
d="M109.5 475q-27.5 28 -27.5 83q0 54 27.5 82.5t81.5 28.5q53 0 81 -28.5t28 -82.5q0 -55 -28 -83t-81 -28q-54 0 -81.5 28zM246.5 500.5q17.5 17.5 17.5 57.5q0 39 -17.5 57t-55.5 18q-39 0 -56 -18t-17 -57q0 -40 17 -57.5t56 -17.5q38 0 55.5 17.5z" />
    <glyph glyph-name="plusminus" unicode="&#xb1;" horiz-adv-x="585" 
d="M261 292h-148v60h148v147h60v-147h147v-60h-147v-148h-60v148zM113 93h355v-60h-355v60z" />
    <glyph glyph-name="two.superior" unicode="&#xb2;" horiz-adv-x="328" 
d="M279 522v-59h-226v34q56 42 104 103t48 114q0 22 -18 36.5t-47 14.5q-22 0 -44.5 -9t-38.5 -21v64q44 27 97 27q61 0 90.5 -29.5t29.5 -70.5q0 -49 -35.5 -103t-88.5 -101h129z" />
    <glyph glyph-name="three.superior" unicode="&#xb3;" horiz-adv-x="323" 
d="M53 481v62q44 -24 91 -24q30 0 50 13.5t20 42.5q0 25 -21 37.5t-51 12.5h-39v57h41q21 0 36 11t15 37q0 15 -15.5 25t-40.5 10q-41 0 -77 -19v62q40 18 82 18q61 0 90 -28.5t29 -67.5q0 -24 -10 -40t-23 -25t-13 -8q4 -3 22 -12.5t30 -29.5t12 -50q0 -44 -32.5 -75
t-99.5 -31q-50 0 -96 22z" />
    <glyph glyph-name="acute" unicode="&#xb4;" horiz-adv-x="236" 
d="M117 679h74l-83 -115h-48z" />
    <glyph glyph-name="uni00B5" unicode="&#xb5;" horiz-adv-x="609" 
d="M99 499h72v-324q0 -48 26.5 -79.5t106.5 -31.5q66 0 131 19v416h72v-458q-31 -16 -87 -32.5t-123 -16.5q-34 0 -62 9t-46 19.5t-18 11.5v-242h-72v709z" />
    <glyph glyph-name="paragraph" unicode="&#xb6;" horiz-adv-x="445" 
d="M301 256h-33q-112 0 -171 53t-59 153q0 99 59 152t171 53h99v-667h-66v256z" />
    <glyph glyph-name="periodcentered" unicode="&#xb7;" horiz-adv-x="311" 
d="M116 312h79v-80h-79v80z" />
    <glyph glyph-name="cedilla" unicode="&#xb8;" horiz-adv-x="253" 
d="M138 -5h57l-63 -115h-76z" />
    <glyph glyph-name="one.superior" unicode="&#xb9;" horiz-adv-x="234" 
d="M163 822v-359h-68v268l-42 -27v76l66 42h44z" />
    <glyph glyph-name="ordmasculine" unicode="&#xba;" horiz-adv-x="417" 
d="M113.5 420.5q-37.5 31.5 -37.5 111.5q0 81 37.5 112.5t92.5 31.5t92.5 -31.5t37.5 -112.5q0 -80 -37.5 -111.5t-92.5 -31.5t-92.5 31.5zM275 451q21 25 21 81t-21 81.5t-69 25.5q-47 0 -68.5 -25.5t-21.5 -81.5t21.5 -81t68.5 -25q48 0 69 25z" />
    <glyph glyph-name="guillemotright" unicode="&#xbb;" horiz-adv-x="553" 
d="M244 255l-177 190h96l170 -190l-170 -191h-96zM434 255l-177 190h96l170 -190l-170 -191h-96z" />
    <glyph glyph-name="onequarter" unicode="&#xbc;" horiz-adv-x="739" 
d="M163 674v-359h-68v268l-42 -27v76l66 42h44zM477 685h68l-407 -707h-68zM689 145v-56h-51v-88h-69v88h-144v61l170 210h43v-215h51zM569 145v98l-81 -98h81z" />
    <glyph glyph-name="onehalf" unicode="&#xbd;" horiz-adv-x="685" 
d="M163 674v-359h-68v268l-42 -27v76l66 42h44zM470 685h68l-407 -707h-68zM635 60v-59h-226v34q56 42 104 103t48 114q0 22 -18 36.5t-47 14.5q-22 0 -44.5 -9t-38.5 -21v64q44 27 97 27q61 0 90.5 -29.5t29.5 -70.5q0 -49 -35.5 -103t-88.5 -101h129z" />
    <glyph glyph-name="threequarters" unicode="&#xbe;" horiz-adv-x="751" 
d="M53 333v62q44 -24 91 -24q30 0 50 13.5t20 42.5q0 25 -21 37.5t-51 12.5h-39v57h41q21 0 36 11t15 37q0 15 -15.5 25t-40.5 10q-41 0 -77 -19v62q40 18 82 18q61 0 90 -28.5t29 -67.5q0 -24 -10 -40t-23 -25t-13 -8q4 -3 22 -12.5t30 -29.5t12 -50q0 -44 -32.5 -75
t-99.5 -31q-50 0 -96 22zM550 685h68l-407 -707h-68zM701 145v-56h-51v-88h-69v88h-144v61l170 210h43v-215h51zM581 145v98l-81 -98h81z" />
    <glyph glyph-name="questiondown" unicode="&#xbf;" horiz-adv-x="483" 
d="M218 499h80v-79h-80v79zM135 -136q-63 40 -63 146q0 47 18.5 74.5t54.5 58.5q25 21 40.5 38t26 43t10.5 63v45h72v-50q0 -49 -13 -82.5t-31 -54t-47 -44.5q-30 -23 -44.5 -42.5t-14.5 -48.5q0 -55 33.5 -84.5t98.5 -29.5q69 0 134 44v-78q0 -1 -20 -11t-51.5 -18.5
t-68.5 -8.5q-72 0 -135 40z" />
    <glyph glyph-name="Agrave" unicode="&#xc0;" horiz-adv-x="643" 
d="M466 208h-288l-80 -208h-78l266 667h72l265 -667h-77zM439 277l-117 305l-117 -305h234zM221 836h74l57 -115h-48z" />
    <glyph glyph-name="Aacute" unicode="&#xc1;" horiz-adv-x="643" 
d="M466 208h-288l-80 -208h-78l266 667h72l265 -667h-77zM439 277l-117 305l-117 -305h234zM362 847h74l-83 -115h-48z" />
    <glyph glyph-name="Acircumflex" unicode="&#xc2;" horiz-adv-x="643" 
d="M466 208h-288l-80 -208h-78l266 667h72l265 -667h-77zM439 277l-117 305l-117 -305h234zM293 839h61l80 -120h-46l-65 70l-65 -70h-46z" />
    <glyph glyph-name="Atilde" unicode="&#xc3;" horiz-adv-x="643" 
d="M466 208h-288l-80 -208h-78l266 667h72l265 -667h-77zM439 277l-117 305l-117 -305h234zM187 727q-4 15 -4 30q0 37 23.5 59.5t53.5 22.5q24 0 42.5 -9.5t43.5 -27.5q16 -13 27 -19.5t23 -6.5t19 8t7 23q0 5 -2 17h52q2 -14 2 -21q0 -37 -23.5 -60t-62.5 -23
q-22 0 -41 10t-41 27q-16 13 -26.5 19t-20.5 6q-12 0 -20 -9.5t-8 -27.5q0 -4 2 -18h-46z" />
    <glyph glyph-name="Adieresis" unicode="&#xc4;" horiz-adv-x="643" 
d="M466 208h-288l-80 -208h-78l266 667h72l265 -667h-77zM439 277l-117 305l-117 -305h234zM209 805h79v-79h-79v79zM357 805h79v-79h-79v79z" />
    <glyph glyph-name="Aring" unicode="&#xc5;" horiz-adv-x="643" 
d="M466 208h-288l-80 -208h-78l257 645q-29 8 -42 29t-13 58q0 48 23.5 70t77.5 22q53 0 77 -22t24 -70q0 -37 -13.5 -58.5t-43.5 -28.5l256 -645h-77zM279.5 769.5q-11.5 -10.5 -11.5 -37.5t11.5 -38t43.5 -11q31 0 42.5 11t11.5 38t-11.5 37.5t-42.5 10.5
q-32 0 -43.5 -10.5zM439 277l-117 305l-117 -305h234z" />
    <glyph glyph-name="AE" unicode="&#xc6;" horiz-adv-x="957" 
d="M545 598v-230h296v-70h-296v-229h337v-69h-409v209h-228l-142 -209h-83l456 667h406v-69h-337zM473 281v265l-180 -265h180z" />
    <glyph glyph-name="Ccedilla" unicode="&#xc7;" horiz-adv-x="622" 
d="M188 542q-58 -66 -58 -208q0 -143 57.5 -208.5t184.5 -65.5q106 0 195 49v-69q-97 -45 -191 -48l-56 -102h-76l74 104q-131 12 -197 97.5t-66 242.5q0 170 77.5 256t231.5 86q102 0 203 -49v-69q-94 50 -195 50q-126 0 -184 -66z" />
    <glyph glyph-name="Egrave" unicode="&#xc8;" horiz-adv-x="581" 
d="M85 667h421v-68h-349v-230h307v-70h-307v-231h349v-68h-421v667zM205 836h74l57 -115h-48z" />
    <glyph glyph-name="Eacute" unicode="&#xc9;" horiz-adv-x="581" 
d="M85 667h421v-68h-349v-230h307v-70h-307v-231h349v-68h-421v667zM346 847h74l-83 -115h-48z" />
    <glyph glyph-name="Ecircumflex" unicode="&#xca;" horiz-adv-x="581" 
d="M85 667h421v-68h-349v-230h307v-70h-307v-231h349v-68h-421v667zM277 839h61l80 -120h-46l-65 70l-65 -70h-46z" />
    <glyph glyph-name="Edieresis" unicode="&#xcb;" horiz-adv-x="581" 
d="M85 667h421v-68h-349v-230h307v-70h-307v-231h349v-68h-421v667zM193 805h79v-79h-79v79zM341 805h79v-79h-79v79z" />
    <glyph glyph-name="Igrave" unicode="&#xcc;" horiz-adv-x="242" 
d="M85 667h72v-667h-72v667zM19 836h74l57 -115h-48z" />
    <glyph glyph-name="Iacute" unicode="&#xcd;" horiz-adv-x="242" 
d="M85 667h72v-667h-72v667zM160 847h74l-83 -115h-48z" />
    <glyph glyph-name="Icircumflex" unicode="&#xce;" horiz-adv-x="242" 
d="M85 667h72v-667h-72v667zM91 839h61l80 -120h-46l-65 70l-65 -70h-46z" />
    <glyph glyph-name="Idieresis" unicode="&#xcf;" horiz-adv-x="242" 
d="M85 667h72v-667h-72v667zM7 805h79v-79h-79v79zM155 805h79v-79h-79v79z" />
    <glyph glyph-name="Eth" unicode="&#xd0;" horiz-adv-x="667" 
d="M528.5 583.5q78.5 -83.5 78.5 -249.5q0 -334 -313 -334h-209v307h-78v53h78v307h209q156 0 234.5 -83.5zM474.5 132q58.5 64 58.5 202t-58.5 202t-185.5 64h-132v-240h94v-53h-94v-239h132q127 0 185.5 64z" />
    <glyph glyph-name="Ntilde" unicode="&#xd1;" horiz-adv-x="722" 
d="M637 667v-667h-81l-399 562v-562h-72v667h82l398 -562v562h72zM226 727q-4 15 -4 30q0 37 23.5 59.5t53.5 22.5q24 0 42.5 -9.5t43.5 -27.5q16 -13 27 -19.5t23 -6.5t19 8t7 23q0 5 -2 17h52q2 -14 2 -21q0 -37 -23.5 -60t-62.5 -23q-22 0 -41 10t-41 27q-16 13 -26.5 19
t-20.5 6q-12 0 -20 -9.5t-8 -27.5q0 -4 2 -18h-46z" />
    <glyph glyph-name="Ograve" unicode="&#xd2;" horiz-adv-x="719" 
d="M135.5 76.5q-75.5 86.5 -75.5 256.5t75.5 256.5t223.5 86.5q149 0 224.5 -86.5t75.5 -256.5t-75.5 -256.5t-224.5 -86.5q-148 0 -223.5 86.5zM531 124q54 66 54 209q0 142 -54 208.5t-172 66.5q-117 0 -171 -66.5t-54 -208.5q0 -143 54 -209t171 -66q118 0 172 66z
M265 836h74l57 -115h-48z" />
    <glyph glyph-name="Oacute" unicode="&#xd3;" horiz-adv-x="719" 
d="M135.5 76.5q-75.5 86.5 -75.5 256.5t75.5 256.5t223.5 86.5q149 0 224.5 -86.5t75.5 -256.5t-75.5 -256.5t-224.5 -86.5q-148 0 -223.5 86.5zM531 124q54 66 54 209q0 142 -54 208.5t-172 66.5q-117 0 -171 -66.5t-54 -208.5q0 -143 54 -209t171 -66q118 0 172 66z
M406 847h74l-83 -115h-48z" />
    <glyph glyph-name="Ocircumflex" unicode="&#xd4;" horiz-adv-x="719" 
d="M135.5 76.5q-75.5 86.5 -75.5 256.5t75.5 256.5t223.5 86.5q149 0 224.5 -86.5t75.5 -256.5t-75.5 -256.5t-224.5 -86.5q-148 0 -223.5 86.5zM531 124q54 66 54 209q0 142 -54 208.5t-172 66.5q-117 0 -171 -66.5t-54 -208.5q0 -143 54 -209t171 -66q118 0 172 66z
M337 839h61l80 -120h-46l-65 70l-65 -70h-46z" />
    <glyph glyph-name="Otilde" unicode="&#xd5;" horiz-adv-x="719" 
d="M135.5 76.5q-75.5 86.5 -75.5 256.5t75.5 256.5t223.5 86.5q149 0 224.5 -86.5t75.5 -256.5t-75.5 -256.5t-224.5 -86.5q-148 0 -223.5 86.5zM531 124q54 66 54 209q0 142 -54 208.5t-172 66.5q-117 0 -171 -66.5t-54 -208.5q0 -143 54 -209t171 -66q118 0 172 66z
M231 727q-4 15 -4 30q0 37 23.5 59.5t53.5 22.5q24 0 42.5 -9.5t43.5 -27.5q16 -13 27 -19.5t23 -6.5t19 8t7 23q0 5 -2 17h52q2 -14 2 -21q0 -37 -23.5 -60t-62.5 -23q-22 0 -41 10t-41 27q-16 13 -26.5 19t-20.5 6q-12 0 -20 -9.5t-8 -27.5q0 -4 2 -18h-46z" />
    <glyph glyph-name="Odieresis" unicode="&#xd6;" horiz-adv-x="719" 
d="M135.5 76.5q-75.5 86.5 -75.5 256.5t75.5 256.5t223.5 86.5q149 0 224.5 -86.5t75.5 -256.5t-75.5 -256.5t-224.5 -86.5q-148 0 -223.5 86.5zM531 124q54 66 54 209q0 142 -54 208.5t-172 66.5q-117 0 -171 -66.5t-54 -208.5q0 -143 54 -209t171 -66q118 0 172 66z
M253 805h79v-79h-79v79zM401 805h79v-79h-79v79z" />
    <glyph glyph-name="multiply" unicode="&#xd7;" horiz-adv-x="481" 
d="M210 256l-133 178h64l101 -135l102 135h64l-133 -178l133 -178h-64l-102 135l-101 -135h-64z" />
    <glyph glyph-name="Oslash" unicode="&#xd8;" horiz-adv-x="719" 
d="M601 567q58 -83 58 -234q0 -170 -75.5 -256.5t-224.5 -86.5q-122 0 -196 59l-41 -49h-65l71 85q-68 86 -68 248q0 170 75.5 256.5t223.5 86.5q135 0 209 -70l51 61h66zM176 141l346 411q-55 56 -163 56q-117 0 -171 -66.5t-54 -208.5q0 -127 42 -192zM552 509l-343 -406
q52 -45 150 -45q118 0 172 66t54 209q0 112 -33 176z" />
    <glyph glyph-name="Ugrave" unicode="&#xd9;" horiz-adv-x="692" 
d="M153.5 63q-68.5 73 -68.5 209v395h72v-399q0 -210 189 -210q191 0 191 210v399h70v-395q0 -136 -68.5 -209t-192.5 -73t-192.5 73zM244 836h74l57 -115h-48z" />
    <glyph glyph-name="Uacute" unicode="&#xda;" horiz-adv-x="692" 
d="M153.5 63q-68.5 73 -68.5 209v395h72v-399q0 -210 189 -210q191 0 191 210v399h70v-395q0 -136 -68.5 -209t-192.5 -73t-192.5 73zM385 847h74l-83 -115h-48z" />
    <glyph glyph-name="Ucircumflex" unicode="&#xdb;" horiz-adv-x="692" 
d="M153.5 63q-68.5 73 -68.5 209v395h72v-399q0 -210 189 -210q191 0 191 210v399h70v-395q0 -136 -68.5 -209t-192.5 -73t-192.5 73zM316 839h61l80 -120h-46l-65 70l-65 -70h-46z" />
    <glyph glyph-name="Udieresis" unicode="&#xdc;" horiz-adv-x="692" 
d="M153.5 63q-68.5 73 -68.5 209v395h72v-399q0 -210 189 -210q191 0 191 210v399h70v-395q0 -136 -68.5 -209t-192.5 -73t-192.5 73zM232 805h79v-79h-79v79zM380 805h79v-79h-79v79z" />
    <glyph glyph-name="Yacute" unicode="&#xdd;" horiz-adv-x="598" 
d="M333 306v-306h-72v306l-249 361h87l197 -292l198 292h87zM344 847h74l-83 -115h-48z" />
    <glyph glyph-name="Thorn" unicode="&#xde;" horiz-adv-x="570" 
d="M86 667h72v-101h130q111 0 170.5 -53.5t59.5 -153.5t-59.5 -153t-170.5 -53h-130v-153h-72v667zM278 222q100 0 134 38t34 99t-34 99t-134 38h-120v-274h120z" />
    <glyph glyph-name="germandbls" unicode="&#xdf;" horiz-adv-x="585" 
d="M80 423q0 113 50 183t156 70q93 0 152 -41.5t59 -115.5q0 -58 -27 -97t-66 -52q28 -9 57 -35.5t49 -68t20 -93.5q0 -51 -22 -93.5t-66.5 -67.5t-108.5 -25q-34 0 -84 13v71q48 -18 87 -18q58 0 89 32t31 92q0 45 -23.5 79.5t-61 53t-76.5 18.5v63q65 0 96.5 32t31.5 87
q0 52 -38 77t-97 25q-136 0 -136 -182v-430h-72v423z" />
    <glyph glyph-name="agrave" unicode="&#xe0;" horiz-adv-x="554" 
d="M425.5 467q48.5 -41 48.5 -119v-242q0 -72 -59 -96.5t-163 -24.5q-79 0 -135.5 35t-56.5 117q0 89 49 129.5t135 40.5q97 0 157 -35v59q0 112 -131 112q-43 0 -87 -12t-74 -36v72q30 19 81.5 30t102.5 11q84 0 132.5 -41zM370 59.5q31 10.5 31 42.5v112q-27 13 -63 20.5
t-75 7.5q-63 0 -97 -24t-34 -70q0 -52 40 -75.5t97 -23.5q70 0 101 10.5zM186 679h73l57 -115h-47z" />
    <glyph glyph-name="aacute" unicode="&#xe1;" horiz-adv-x="554" 
d="M425.5 467q48.5 -41 48.5 -119v-242q0 -72 -59 -96.5t-163 -24.5q-79 0 -135.5 35t-56.5 117q0 89 49 129.5t135 40.5q97 0 157 -35v59q0 112 -131 112q-43 0 -87 -12t-74 -36v72q30 19 81.5 30t102.5 11q84 0 132.5 -41zM370 59.5q31 10.5 31 42.5v112q-27 13 -63 20.5
t-75 7.5q-63 0 -97 -24t-34 -70q0 -52 40 -75.5t97 -23.5q70 0 101 10.5zM322 679h74l-83 -115h-48z" />
    <glyph glyph-name="acircumflex" unicode="&#xe2;" horiz-adv-x="554" 
d="M425.5 467q48.5 -41 48.5 -119v-242q0 -72 -59 -96.5t-163 -24.5q-79 0 -135.5 35t-56.5 117q0 89 49 129.5t135 40.5q97 0 157 -35v59q0 112 -131 112q-43 0 -87 -12t-74 -36v72q30 19 81.5 30t102.5 11q84 0 132.5 -41zM370 59.5q31 10.5 31 42.5v112q-27 13 -63 20.5
t-75 7.5q-63 0 -97 -24t-34 -70q0 -52 40 -75.5t97 -23.5q70 0 101 10.5zM261 684h61l80 -120h-46l-65 70l-65 -70h-46z" />
    <glyph glyph-name="atilde" unicode="&#xe3;" horiz-adv-x="554" 
d="M425.5 467q48.5 -41 48.5 -119v-242q0 -72 -59 -96.5t-163 -24.5q-79 0 -135.5 35t-56.5 117q0 89 49 129.5t135 40.5q97 0 157 -35v59q0 112 -131 112q-43 0 -87 -12t-74 -36v72q30 19 81.5 30t102.5 11q84 0 132.5 -41zM370 59.5q31 10.5 31 42.5v112q-27 13 -63 20.5
t-75 7.5q-63 0 -97 -24t-34 -70q0 -52 40 -75.5t97 -23.5q70 0 101 10.5zM150 544q-4 15 -4 30q0 37 23.5 59.5t53.5 22.5q24 0 42.5 -9.5t43.5 -27.5q16 -13 27 -19.5t23 -6.5t19 8t7 23q0 5 -2 17h52q2 -14 2 -21q0 -37 -23.5 -60t-62.5 -23q-22 0 -41 10t-41 27
q-16 13 -26.5 19t-20.5 6q-12 0 -20 -9.5t-8 -27.5q0 -4 2 -18h-46z" />
    <glyph glyph-name="adieresis" unicode="&#xe4;" horiz-adv-x="554" 
d="M425.5 467q48.5 -41 48.5 -119v-242q0 -72 -59 -96.5t-163 -24.5q-79 0 -135.5 35t-56.5 117q0 89 49 129.5t135 40.5q97 0 157 -35v59q0 112 -131 112q-43 0 -87 -12t-74 -36v72q30 19 81.5 30t102.5 11q84 0 132.5 -41zM370 59.5q31 10.5 31 42.5v112q-27 13 -63 20.5
t-75 7.5q-63 0 -97 -24t-34 -70q0 -52 40 -75.5t97 -23.5q70 0 101 10.5zM177 643h79v-79h-79v79zM325 643h79v-79h-79v79z" />
    <glyph glyph-name="aring" unicode="&#xe5;" horiz-adv-x="554" 
d="M425.5 467q48.5 -41 48.5 -119v-242q0 -72 -59 -96.5t-163 -24.5q-79 0 -135.5 35t-56.5 117q0 89 49 129.5t135 40.5q97 0 157 -35v59q0 112 -131 112q-43 0 -87 -12t-74 -36v72q30 19 81.5 30t102.5 11q84 0 132.5 -41zM370 59.5q31 10.5 31 42.5v112q-27 13 -63 20.5
t-75 7.5q-63 0 -97 -24t-34 -70q0 -52 40 -75.5t97 -23.5q70 0 101 10.5zM213.5 557q-23.5 22 -23.5 70t23.5 70t77.5 22q53 0 77 -22t24 -70t-24 -70t-77 -22q-54 0 -77.5 22zM333.5 589q11.5 11 11.5 38t-11.5 37.5t-42.5 10.5q-32 0 -43.5 -10.5t-11.5 -37.5t11.5 -38
t43.5 -11q31 0 42.5 11z" />
    <glyph glyph-name="ae" unicode="&#xe6;" horiz-adv-x="893" 
d="M787 434q53 -74 51 -197h-364q0 -90 42 -138t120 -48q100 0 171 43v-74q-73 -35 -175 -35q-115 0 -175 70q-37 -31 -82.5 -50.5t-105.5 -19.5q-98 0 -153.5 37t-55.5 115q0 91 57.5 130.5t153.5 39.5q78 0 130 -29v53q0 112 -131 112q-43 0 -87 -12t-74 -36v72
q30 19 81.5 30t102.5 11q115 0 160 -73q55 73 167 73q114 0 167 -74zM520 411.5q-34 -30.5 -43 -108.5h285q-5 70 -39.5 104.5t-102.5 34.5q-66 0 -100 -30.5zM358 63.5q43 14.5 68 40.5q-21 49 -24 109q-27 13 -63.5 21t-75.5 8q-66 0 -98.5 -24.5t-32.5 -74.5
q0 -49 39.5 -71.5t97.5 -22.5q46 0 89 14.5z" />
    <glyph glyph-name="ccedilla" unicode="&#xe7;" horiz-adv-x="492" 
d="M167.5 394q-40.5 -45 -40.5 -144q0 -100 40.5 -144.5t129.5 -44.5q75 0 140 28v-70q-60 -23 -123 -26l-62 -113h-76l81 113q-88 8 -145 66.5t-57 190.5q0 144 67.5 201t166.5 57q75 0 148 -28v-69q-68 28 -140 28q-89 0 -129.5 -45z" />
    <glyph glyph-name="egrave" unicode="&#xe8;" horiz-adv-x="547" 
d="M441 434q53 -74 51 -197h-364q0 -90 42 -138t120 -48q100 0 171 43v-74q-73 -35 -175 -35q-109 0 -170 67.5t-61 197.5q0 127 57.5 192.5t161.5 65.5q114 0 167 -74zM174 411.5q-34 -30.5 -43 -108.5h285q-5 70 -39.5 104.5t-102.5 34.5q-66 0 -100 -30.5zM178 679h73
l57 -115h-47z" />
    <glyph glyph-name="eacute" unicode="&#xe9;" horiz-adv-x="547" 
d="M441 434q53 -74 51 -197h-364q0 -90 42 -138t120 -48q100 0 171 43v-74q-73 -35 -175 -35q-109 0 -170 67.5t-61 197.5q0 127 57.5 192.5t161.5 65.5q114 0 167 -74zM174 411.5q-34 -30.5 -43 -108.5h285q-5 70 -39.5 104.5t-102.5 34.5q-66 0 -100 -30.5zM314 679h74
l-83 -115h-48z" />
    <glyph glyph-name="ecircumflex" unicode="&#xea;" horiz-adv-x="547" 
d="M441 434q53 -74 51 -197h-364q0 -90 42 -138t120 -48q100 0 171 43v-74q-73 -35 -175 -35q-109 0 -170 67.5t-61 197.5q0 127 57.5 192.5t161.5 65.5q114 0 167 -74zM174 411.5q-34 -30.5 -43 -108.5h285q-5 70 -39.5 104.5t-102.5 34.5q-66 0 -100 -30.5zM253 684h61
l80 -120h-46l-65 70l-65 -70h-46z" />
    <glyph glyph-name="edieresis" unicode="&#xeb;" horiz-adv-x="547" 
d="M441 434q53 -74 51 -197h-364q0 -90 42 -138t120 -48q100 0 171 43v-74q-73 -35 -175 -35q-109 0 -170 67.5t-61 197.5q0 127 57.5 192.5t161.5 65.5q114 0 167 -74zM174 411.5q-34 -30.5 -43 -108.5h285q-5 70 -39.5 104.5t-102.5 34.5q-66 0 -100 -30.5zM169 643h79
v-79h-79v79zM317 643h79v-79h-79v79z" />
    <glyph glyph-name="igrave" unicode="&#xec;" horiz-adv-x="270" 
d="M28 679h74l57 -115h-48zM99 499h72v-499h-72v499z" />
    <glyph glyph-name="iacute" unicode="&#xed;" horiz-adv-x="270" 
d="M167 679h74l-83 -115h-47zM99 499h72v-499h-72v499z" />
    <glyph glyph-name="icircumflex" unicode="&#xee;" horiz-adv-x="270" 
d="M114 684h41l81 -120h-56l-45 70l-46 -70h-56zM99 499h72v-499h-72v499z" />
    <glyph glyph-name="idieresis" unicode="&#xef;" horiz-adv-x="270" 
d="M21 643h79v-79h-79v79zM169 643h79v-79h-79v79zM99 499h72v-499h-72v499z" />
    <glyph glyph-name="eth" unicode="&#xf0;" horiz-adv-x="567" 
d="M512 271q0 -134 -58 -210t-169 -76q-115 0 -172.5 68t-57.5 195q0 129 58.5 194.5t169.5 65.5q49 0 87 -20q-28 43 -65 83l-132 -22l-9 57l90 15q-40 35 -80 65v3h114q32 -30 54 -54l104 17l8 -57l-66 -11q124 -152 124 -313zM365.5 68.5q33.5 17.5 53.5 66t21 136.5
q0 66 -25 130q-26 19 -60 30t-71 11q-157 0 -157 -194q0 -197 157 -197q48 0 81.5 17.5z" />
    <glyph glyph-name="ntilde" unicode="&#xf1;" 
d="M291 508q105 0 151.5 -46t46.5 -137v-325h-72v325q0 118 -134 118q-62 0 -131 -20v-423h-72v459q97 49 211 49zM145 544q-4 15 -4 30q0 37 23.5 59.5t53.5 22.5q24 0 42.5 -9.5t43.5 -27.5q16 -13 27 -19.5t23 -6.5t19 8t7 23q0 5 -2 17h52q2 -14 2 -21q0 -37 -23.5 -60
t-62.5 -23q-22 0 -41 10t-41 27q-16 13 -26.5 19t-20.5 6q-12 0 -20 -9.5t-8 -27.5q0 -4 2 -18h-46z" />
    <glyph glyph-name="ograve" unicode="&#xf2;" 
d="M112.5 53q-57.5 68 -57.5 195q0 129 58.5 194.5t169.5 65.5q117 0 174 -69.5t57 -190.5q0 -124 -60 -193.5t-169 -69.5q-115 0 -172.5 68zM442 248q0 94 -37 144t-121 50q-157 0 -157 -194q0 -197 157 -197q158 0 158 197zM182 679h73l57 -115h-47z" />
    <glyph glyph-name="oacute" unicode="&#xf3;" 
d="M112.5 53q-57.5 68 -57.5 195q0 129 58.5 194.5t169.5 65.5q117 0 174 -69.5t57 -190.5q0 -124 -60 -193.5t-169 -69.5q-115 0 -172.5 68zM442 248q0 94 -37 144t-121 50q-157 0 -157 -194q0 -197 157 -197q158 0 158 197zM318 679h74l-83 -115h-48z" />
    <glyph glyph-name="ocircumflex" unicode="&#xf4;" 
d="M112.5 53q-57.5 68 -57.5 195q0 129 58.5 194.5t169.5 65.5q117 0 174 -69.5t57 -190.5q0 -124 -60 -193.5t-169 -69.5q-115 0 -172.5 68zM442 248q0 94 -37 144t-121 50q-157 0 -157 -194q0 -197 157 -197q158 0 158 197zM257 684h61l80 -120h-46l-65 70l-65 -70h-46z
" />
    <glyph glyph-name="otilde" unicode="&#xf5;" 
d="M112.5 53q-57.5 68 -57.5 195q0 129 58.5 194.5t169.5 65.5q117 0 174 -69.5t57 -190.5q0 -124 -60 -193.5t-169 -69.5q-115 0 -172.5 68zM442 248q0 94 -37 144t-121 50q-157 0 -157 -194q0 -197 157 -197q158 0 158 197zM146 544q-4 15 -4 30q0 37 23.5 59.5t53.5 22.5
q24 0 42.5 -9.5t43.5 -27.5q16 -13 27 -19.5t23 -6.5t19 8t7 23q0 5 -2 17h52q2 -14 2 -21q0 -37 -23.5 -60t-62.5 -23q-22 0 -41 10t-41 27q-16 13 -26.5 19t-20.5 6q-12 0 -20 -9.5t-8 -27.5q0 -4 2 -18h-46z" />
    <glyph glyph-name="odieresis" unicode="&#xf6;" 
d="M112.5 53q-57.5 68 -57.5 195q0 129 58.5 194.5t169.5 65.5q117 0 174 -69.5t57 -190.5q0 -124 -60 -193.5t-169 -69.5q-115 0 -172.5 68zM442 248q0 94 -37 144t-121 50q-157 0 -157 -194q0 -197 157 -197q158 0 158 197zM173 643h79v-79h-79v79zM321 643h79v-79h-79v79
z" />
    <glyph glyph-name="divide" unicode="&#xf7;" horiz-adv-x="628" 
d="M274 439h80v-80h-80v80zM111 287h406v-60h-406v60zM274 154h80v-80h-80v80z" />
    <glyph glyph-name="oslash" unicode="&#xf8;" horiz-adv-x="574" 
d="M470 421q44 -65 44 -173q0 -124 -60 -193.5t-169 -69.5q-91 0 -146 43l-24 -28h-78l61 72q-43 65 -43 176q0 129 58.5 194.5t169.5 65.5q91 0 146 -43l29 34h78zM147 131l238 281q-38 30 -101 30q-157 0 -157 -194q0 -71 20 -117zM422 364l-238 -282q37 -31 100 -31
q158 0 158 197q0 72 -20 116z" />
    <glyph glyph-name="ugrave" unicode="&#xf9;" horiz-adv-x="578" 
d="M134.5 36.5q-54.5 51.5 -54.5 146.5v316h72v-300q0 -76 33 -111.5t104 -35.5q70 0 103.5 35.5t33.5 111.5v300h72v-316q0 -95 -54.5 -146.5t-154.5 -51.5t-154.5 51.5zM184 679h73l57 -115h-47z" />
    <glyph glyph-name="uacute" unicode="&#xfa;" horiz-adv-x="578" 
d="M134.5 36.5q-54.5 51.5 -54.5 146.5v316h72v-300q0 -76 33 -111.5t104 -35.5q70 0 103.5 35.5t33.5 111.5v300h72v-316q0 -95 -54.5 -146.5t-154.5 -51.5t-154.5 51.5zM320 679h74l-83 -115h-48z" />
    <glyph glyph-name="ucircumflex" unicode="&#xfb;" horiz-adv-x="578" 
d="M134.5 36.5q-54.5 51.5 -54.5 146.5v316h72v-300q0 -76 33 -111.5t104 -35.5q70 0 103.5 35.5t33.5 111.5v300h72v-316q0 -95 -54.5 -146.5t-154.5 -51.5t-154.5 51.5zM259 684h61l80 -120h-46l-65 70l-65 -70h-46z" />
    <glyph glyph-name="udieresis" unicode="&#xfc;" horiz-adv-x="578" 
d="M134.5 36.5q-54.5 51.5 -54.5 146.5v316h72v-300q0 -76 33 -111.5t104 -35.5q70 0 103.5 35.5t33.5 111.5v300h72v-316q0 -95 -54.5 -146.5t-154.5 -51.5t-154.5 51.5zM175 643h79v-79h-79v79zM323 643h79v-79h-79v79z" />
    <glyph glyph-name="yacute" unicode="&#xfd;" horiz-adv-x="540" 
d="M505 499l-214 -548q-31 -80 -72.5 -112t-84.5 -32q-24 0 -47 9v66q20 -9 43 -9q43 0 67 31t45 94l-207 501h82l158 -407l158 407h72zM306 679h74l-83 -115h-48z" />
    <glyph glyph-name="thorn" unicode="&#xfe;" 
d="M448 443.5q66 -64.5 66 -206.5q0 -117 -62 -184t-176 -67q-26 0 -60 8t-64 21v-215h-72v889h72v-200q54 19 130 19q100 0 166 -64.5zM396.5 102q41.5 50 41.5 135q0 94 -34 149.5t-123 55.5q-54 0 -91.5 -12.5t-37.5 -33.5v-309q60 -35 124 -35q79 0 120.5 50z" />
    <glyph glyph-name="ydieresis" unicode="&#xff;" horiz-adv-x="540" 
d="M505 499l-214 -548q-31 -80 -72.5 -112t-84.5 -32q-24 0 -47 9v66q20 -9 43 -9q43 0 67 31t45 94l-207 501h82l158 -407l158 407h72zM161 643h79v-79h-79v79zM309 643h79v-79h-79v79z" />
    <glyph glyph-name="Amacron" unicode="&#x100;" horiz-adv-x="643" 
d="M466 208h-288l-80 -208h-78l266 667h72l265 -667h-77zM439 277l-117 305l-117 -305h234zM206 769h234v-53h-234v53z" />
    <glyph glyph-name="amacron" unicode="&#x101;" horiz-adv-x="554" 
d="M425.5 467q48.5 -41 48.5 -119v-242q0 -72 -59 -96.5t-163 -24.5q-79 0 -135.5 35t-56.5 117q0 89 49 129.5t135 40.5q97 0 157 -35v59q0 112 -131 112q-43 0 -87 -12t-74 -36v72q30 19 81.5 30t102.5 11q84 0 132.5 -41zM370 59.5q31 10.5 31 42.5v112q-27 13 -63 20.5
t-75 7.5q-63 0 -97 -24t-34 -70q0 -52 40 -75.5t97 -23.5q70 0 101 10.5zM174 629h234v-53h-234v53z" />
    <glyph glyph-name="Abreve" unicode="&#x102;" horiz-adv-x="643" 
d="M466 208h-288l-80 -208h-78l266 667h72l265 -667h-77zM439 277l-117 305l-117 -305h234zM236.5 724.5q-36.5 29.5 -48.5 84.5h52q23 -62 83 -62q58 0 83 62h52q-10 -55 -47 -84.5t-88 -29.5q-50 0 -86.5 29.5z" />
    <glyph glyph-name="abreve" unicode="&#x103;" horiz-adv-x="554" 
d="M425.5 467q48.5 -41 48.5 -119v-242q0 -72 -59 -96.5t-163 -24.5q-79 0 -135.5 35t-56.5 117q0 89 49 129.5t135 40.5q97 0 157 -35v59q0 112 -131 112q-43 0 -87 -12t-74 -36v72q30 19 81.5 30t102.5 11q84 0 132.5 -41zM370 59.5q31 10.5 31 42.5v112q-27 13 -63 20.5
t-75 7.5q-63 0 -97 -24t-34 -70q0 -52 40 -75.5t97 -23.5q70 0 101 10.5zM204.5 574.5q-36.5 29.5 -48.5 84.5h52q23 -62 83 -62q58 0 83 62h52q-10 -55 -47 -84.5t-88 -29.5q-50 0 -86.5 29.5z" />
    <glyph glyph-name="Aogonek" unicode="&#x104;" horiz-adv-x="643" 
d="M554 -42q-25 -22 -25 -43q0 -34 34 -34q28 0 55 27v-63q-32 -18 -60 -18q-41 0 -64.5 22t-23.5 61q0 26 19.5 53t53.5 41h1l-78 204h-288l-80 -208h-78l266 667h72l265 -667h-2q-42 -20 -67 -42zM439 277l-117 305l-117 -305h234z" />
    <glyph glyph-name="aogonek" unicode="&#x105;" horiz-adv-x="554" 
d="M425.5 467q48.5 -41 48.5 -119v-242q0 -47 -29 -76h1l-2 -1q-19 -18 -47 -27q-43 -30 -43 -57q0 -34 34 -34q28 0 55 27v-63q-32 -18 -60 -18q-41 0 -64.5 22t-23.5 61q0 23 15 47q-19 -2 -58 -2q-79 0 -135.5 35t-56.5 117q0 89 49 129.5t135 40.5q97 0 157 -35v59
q0 112 -131 112q-43 0 -87 -12t-74 -36v72q30 19 81.5 30t102.5 11q84 0 132.5 -41zM172 72.5q40 -23.5 97 -23.5q70 0 101 10.5t31 42.5v112q-27 13 -63 20.5t-75 7.5q-63 0 -97 -24t-34 -70q0 -52 40 -75.5z" />
    <glyph glyph-name="Cacute" unicode="&#x106;" horiz-adv-x="622" 
d="M132.5 78q-77.5 86 -77.5 256t77.5 256t231.5 86q102 0 203 -49v-69q-94 50 -195 50q-126 0 -184 -66t-58 -208q0 -143 57.5 -208.5t184.5 -65.5q106 0 195 49v-69q-102 -48 -203 -48q-154 0 -231.5 86zM385 847h74l-83 -115h-48z" />
    <glyph glyph-name="cacute" unicode="&#x107;" horiz-adv-x="492" 
d="M122.5 48.5q-67.5 56.5 -67.5 201.5q0 144 67.5 201t166.5 57q75 0 148 -28v-69q-68 28 -140 28q-89 0 -129.5 -45t-40.5 -144q0 -100 40.5 -144.5t129.5 -44.5q75 0 140 28v-70q-70 -27 -148 -27q-99 0 -166.5 56.5zM297 679h74l-83 -115h-48z" />
    <glyph glyph-name="Ccircumflex" unicode="&#x108;" horiz-adv-x="622" 
d="M132.5 78q-77.5 86 -77.5 256t77.5 256t231.5 86q102 0 203 -49v-69q-94 50 -195 50q-126 0 -184 -66t-58 -208q0 -143 57.5 -208.5t184.5 -65.5q106 0 195 49v-69q-102 -48 -203 -48q-154 0 -231.5 86zM316 839h61l80 -120h-46l-65 70l-65 -70h-46z" />
    <glyph glyph-name="ccircumflex" unicode="&#x109;" horiz-adv-x="492" 
d="M122.5 48.5q-67.5 56.5 -67.5 201.5q0 144 67.5 201t166.5 57q75 0 148 -28v-69q-68 28 -140 28q-89 0 -129.5 -45t-40.5 -144q0 -100 40.5 -144.5t129.5 -44.5q75 0 140 28v-70q-70 -27 -148 -27q-99 0 -166.5 56.5zM236 684h61l80 -120h-46l-65 70l-65 -70h-46z" />
    <glyph glyph-name="Cdotaccent" unicode="&#x10a;" horiz-adv-x="622" 
d="M132.5 78q-77.5 86 -77.5 256t77.5 256t231.5 86q102 0 203 -49v-69q-94 50 -195 50q-126 0 -184 -66t-58 -208q0 -143 57.5 -208.5t184.5 -65.5q106 0 195 49v-69q-102 -48 -203 -48q-154 0 -231.5 86zM306 783h79v-79h-79v79z" />
    <glyph glyph-name="cdotaccent" unicode="&#x10b;" horiz-adv-x="492" 
d="M122.5 48.5q-67.5 56.5 -67.5 201.5q0 144 67.5 201t166.5 57q75 0 148 -28v-69q-68 28 -140 28q-89 0 -129.5 -45t-40.5 -144q0 -100 40.5 -144.5t129.5 -44.5q75 0 140 28v-70q-70 -27 -148 -27q-99 0 -166.5 56.5zM226 643h79v-79h-79v79z" />
    <glyph glyph-name="Ccaron" unicode="&#x10c;" horiz-adv-x="622" 
d="M132.5 78q-77.5 86 -77.5 256t77.5 256t231.5 86q102 0 203 -49v-69q-94 50 -195 50q-126 0 -184 -66t-58 -208q0 -143 57.5 -208.5t184.5 -65.5q106 0 195 49v-69q-102 -48 -203 -48q-154 0 -231.5 86zM245 824h56l45 -70l45 70h56l-80 -120h-41z" />
    <glyph glyph-name="ccaron" unicode="&#x10d;" horiz-adv-x="492" 
d="M122.5 48.5q-67.5 56.5 -67.5 201.5q0 144 67.5 201t166.5 57q75 0 148 -28v-69q-68 28 -140 28q-89 0 -129.5 -45t-40.5 -144q0 -100 40.5 -144.5t129.5 -44.5q75 0 140 28v-70q-70 -27 -148 -27q-99 0 -166.5 56.5zM165 684h56l45 -70l45 70h56l-80 -120h-41z" />
    <glyph glyph-name="Dcaron" unicode="&#x10e;" horiz-adv-x="667" 
d="M85 667h209q156 0 234.5 -83.5t78.5 -249.5q0 -334 -313 -334h-209v667zM289 68q127 0 185.5 64t58.5 202t-58.5 202t-185.5 64h-132v-532h132zM172 824h56l45 -70l45 70h56l-80 -120h-41z" />
    <glyph glyph-name="dcaron" unicode="&#x10f;" 
d="M489 710v-624q0 -51 -64.5 -76t-140.5 -25q-92 0 -160 59.5t-69 211.5q0 118 57.5 184.5t170.5 66.5q26 0 64.5 -8.5t69.5 -20.5v232h72zM417 406q-30 17 -65.5 26t-68.5 9q-78 0 -115 -49.5t-37 -135.5q0 -94 34 -149.5t123 -55.5q53 0 91 12t38 30v313zM608 706h82
l-84 -196h-72z" />
    <glyph glyph-name="Dcroat" unicode="&#x110;" horiz-adv-x="667" 
d="M528.5 583.5q78.5 -83.5 78.5 -249.5q0 -334 -313 -334h-209v307h-78v53h78v307h209q156 0 234.5 -83.5zM474.5 132q58.5 64 58.5 202t-58.5 202t-185.5 64h-132v-240h94v-53h-94v-239h132q127 0 185.5 64z" />
    <glyph glyph-name="dcroat" unicode="&#x111;" 
d="M554 577h-65v-491q0 -51 -64.5 -76t-140.5 -25q-92 0 -160 59.5t-69 211.5q0 118 57.5 184.5t170.5 66.5q26 0 64.5 -8.5t69.5 -20.5v99h-107v53h107v80h72v-80h65v-53zM417 406q-30 17 -65.5 26t-68.5 9q-78 0 -115 -49.5t-37 -135.5q0 -94 34 -149.5t123 -55.5
q53 0 91 12t38 30v313z" />
    <glyph glyph-name="Emacron" unicode="&#x112;" horiz-adv-x="581" 
d="M85 667h421v-68h-349v-230h307v-70h-307v-231h349v-68h-421v667zM190 769h234v-53h-234v53z" />
    <glyph glyph-name="emacron" unicode="&#x113;" horiz-adv-x="547" 
d="M441 434q53 -74 51 -197h-364q0 -90 42 -138t120 -48q100 0 171 43v-74q-73 -35 -175 -35q-109 0 -170 67.5t-61 197.5q0 127 57.5 192.5t161.5 65.5q114 0 167 -74zM174 411.5q-34 -30.5 -43 -108.5h285q-5 70 -39.5 104.5t-102.5 34.5q-66 0 -100 -30.5zM166 629h234
v-53h-234v53z" />
    <glyph glyph-name="Ebreve" unicode="&#x114;" horiz-adv-x="581" 
d="M85 667h421v-68h-349v-230h307v-70h-307v-231h349v-68h-421v667zM220.5 724.5q-36.5 29.5 -48.5 84.5h52q23 -62 83 -62q58 0 83 62h52q-10 -55 -47 -84.5t-88 -29.5q-50 0 -86.5 29.5z" />
    <glyph glyph-name="ebreve" unicode="&#x115;" horiz-adv-x="547" 
d="M441 434q53 -74 51 -197h-364q0 -90 42 -138t120 -48q100 0 171 43v-74q-73 -35 -175 -35q-109 0 -170 67.5t-61 197.5q0 127 57.5 192.5t161.5 65.5q114 0 167 -74zM174 411.5q-34 -30.5 -43 -108.5h285q-5 70 -39.5 104.5t-102.5 34.5q-66 0 -100 -30.5zM196.5 574.5
q-36.5 29.5 -48.5 84.5h52q23 -62 83 -62q58 0 83 62h52q-10 -55 -47 -84.5t-88 -29.5q-50 0 -86.5 29.5z" />
    <glyph glyph-name="Edotaccent" unicode="&#x116;" horiz-adv-x="581" 
d="M85 667h421v-68h-349v-230h307v-70h-307v-231h349v-68h-421v667zM267 783h79v-79h-79v79z" />
    <glyph glyph-name="edotaccent" unicode="&#x117;" horiz-adv-x="547" 
d="M441 434q53 -74 51 -197h-364q0 -90 42 -138t120 -48q100 0 171 43v-74q-73 -35 -175 -35q-109 0 -170 67.5t-61 197.5q0 127 57.5 192.5t161.5 65.5q114 0 167 -74zM174 411.5q-34 -30.5 -43 -108.5h285q-5 70 -39.5 104.5t-102.5 34.5q-66 0 -100 -30.5zM243 643h79
v-79h-79v79z" />
    <glyph glyph-name="Eogonek" unicode="&#x118;" horiz-adv-x="581" 
d="M157 599v-230h307v-70h-307v-231h349v-68h-1q-42 -20 -67 -42t-25 -43q0 -34 34 -34q28 0 55 27v-63q-32 -18 -60 -18q-41 0 -64.5 22t-23.5 61q0 25 17 50t47 40h-333v667h421v-68h-349z" />
    <glyph glyph-name="eogonek" unicode="&#x119;" horiz-adv-x="547" 
d="M441 434q53 -74 51 -197h-364q0 -90 42 -138t120 -48q100 0 171 43v-74q-13 -7 -30 -12q-64 -37 -64 -71t34 -34q28 0 55 27v-63q-32 -18 -60 -18q-41 0 -64.5 22t-23.5 61q0 28 21 55q-28 -2 -43 -2q-109 0 -170 67.5t-61 197.5q0 127 57.5 192.5t161.5 65.5
q114 0 167 -74zM174 411.5q-34 -30.5 -43 -108.5h285q-5 70 -39.5 104.5t-102.5 34.5q-66 0 -100 -30.5z" />
    <glyph glyph-name="Ecaron" unicode="&#x11a;" horiz-adv-x="581" 
d="M85 667h421v-68h-349v-230h307v-70h-307v-231h349v-68h-421v667zM206 824h56l45 -70l45 70h56l-80 -120h-41z" />
    <glyph glyph-name="ecaron" unicode="&#x11b;" horiz-adv-x="547" 
d="M441 434q53 -74 51 -197h-364q0 -90 42 -138t120 -48q100 0 171 43v-74q-73 -35 -175 -35q-109 0 -170 67.5t-61 197.5q0 127 57.5 192.5t161.5 65.5q114 0 167 -74zM174 411.5q-34 -30.5 -43 -108.5h285q-5 70 -39.5 104.5t-102.5 34.5q-66 0 -100 -30.5zM182 684h56
l45 -70l45 70h56l-80 -120h-41z" />
    <glyph glyph-name="Gcircumflex" unicode="&#x11c;" horiz-adv-x="687" 
d="M137.5 77q-77.5 87 -77.5 257t77.5 256t231.5 86q114 0 210 -45v-75q-55 24 -104 38t-98 14q-127 0 -186 -66.5t-59 -207.5q0 -142 59 -208.5t186 -66.5q80 0 153 24v190h-161v70h233v-301q-108 -52 -233 -52q-154 0 -231.5 87zM334 839h61l80 -120h-46l-65 70l-65 -70
h-46z" />
    <glyph glyph-name="gcircumflex" unicode="&#x11d;" 
d="M433.5 476.5q55.5 -30.5 55.5 -93.5v-404q0 -74 -48 -125.5t-169 -51.5q-34 0 -63.5 5.5t-51 11t-27.5 6.5v68q39 -11 68.5 -17t65.5 -6q91 0 122 30t31 77v37q-31 -12 -69.5 -20.5t-64.5 -8.5q-113 0 -170.5 66.5t-57.5 184.5q1 153 71 212t172 59q80 0 135.5 -30.5z
M168 100.5q37 -49.5 115 -49.5q33 0 68.5 9t65.5 26v287q0 39 -30.5 53.5t-82.5 14.5q-100 0 -136.5 -55t-36.5 -150q0 -86 37 -135.5zM281 684h61l80 -120h-46l-65 70l-65 -70h-46z" />
    <glyph glyph-name="Gbreve" unicode="&#x11e;" horiz-adv-x="687" 
d="M137.5 77q-77.5 87 -77.5 257t77.5 256t231.5 86q114 0 210 -45v-75q-55 24 -104 38t-98 14q-127 0 -186 -66.5t-59 -207.5q0 -142 59 -208.5t186 -66.5q80 0 153 24v190h-161v70h233v-301q-108 -52 -233 -52q-154 0 -231.5 87zM277.5 724.5q-36.5 29.5 -48.5 84.5h52
q23 -62 83 -62q58 0 83 62h52q-10 -55 -47 -84.5t-88 -29.5q-50 0 -86.5 29.5z" />
    <glyph glyph-name="gbreve" unicode="&#x11f;" 
d="M433.5 476.5q55.5 -30.5 55.5 -93.5v-404q0 -74 -48 -125.5t-169 -51.5q-34 0 -63.5 5.5t-51 11t-27.5 6.5v68q39 -11 68.5 -17t65.5 -6q91 0 122 30t31 77v37q-31 -12 -69.5 -20.5t-64.5 -8.5q-113 0 -170.5 66.5t-57.5 184.5q1 153 71 212t172 59q80 0 135.5 -30.5z
M168 100.5q37 -49.5 115 -49.5q33 0 68.5 9t65.5 26v287q0 39 -30.5 53.5t-82.5 14.5q-100 0 -136.5 -55t-36.5 -150q0 -86 37 -135.5zM224.5 574.5q-36.5 29.5 -48.5 84.5h52q23 -62 83 -62q58 0 83 62h52q-10 -55 -47 -84.5t-88 -29.5q-50 0 -86.5 29.5z" />
    <glyph glyph-name="Gdotaccent" unicode="&#x120;" horiz-adv-x="687" 
d="M137.5 77q-77.5 87 -77.5 257t77.5 256t231.5 86q114 0 210 -45v-75q-55 24 -104 38t-98 14q-127 0 -186 -66.5t-59 -207.5q0 -142 59 -208.5t186 -66.5q80 0 153 24v190h-161v70h233v-301q-108 -52 -233 -52q-154 0 -231.5 87zM324 783h79v-79h-79v79z" />
    <glyph glyph-name="gdotaccent" unicode="&#x121;" 
d="M433.5 476.5q55.5 -30.5 55.5 -93.5v-404q0 -74 -48 -125.5t-169 -51.5q-34 0 -63.5 5.5t-51 11t-27.5 6.5v68q39 -11 68.5 -17t65.5 -6q91 0 122 30t31 77v37q-31 -12 -69.5 -20.5t-64.5 -8.5q-113 0 -170.5 66.5t-57.5 184.5q1 153 71 212t172 59q80 0 135.5 -30.5z
M168 100.5q37 -49.5 115 -49.5q33 0 68.5 9t65.5 26v287q0 39 -30.5 53.5t-82.5 14.5q-100 0 -136.5 -55t-36.5 -150q0 -86 37 -135.5zM271 643h79v-79h-79v79z" />
    <glyph glyph-name="Gcommaaccent" unicode="&#x122;" horiz-adv-x="687" 
d="M137.5 77q-77.5 87 -77.5 257t77.5 256t231.5 86q114 0 210 -45v-75q-55 24 -104 38t-98 14q-127 0 -186 -66.5t-59 -207.5q0 -142 59 -208.5t186 -66.5q80 0 153 24v190h-161v70h233v-301q-108 -52 -233 -52q-154 0 -231.5 87zM281 -139q24 10 32 34.5t8 55.5h60
q0 -65 -30 -100t-70 -44v54z" />
    <glyph glyph-name="gcommaaccent" unicode="&#x123;" 
d="M329 603.5q-8 -24.5 -8 -55.5h-60q0 65 30 100t70 44v-54q-24 -10 -32 -34.5zM433.5 476.5q55.5 -30.5 55.5 -93.5v-404q0 -74 -48 -125.5t-169 -51.5q-34 0 -63.5 5.5t-51 11t-27.5 6.5v68q39 -11 68.5 -17t65.5 -6q91 0 122 30t31 77v37q-31 -12 -69.5 -20.5
t-64.5 -8.5q-113 0 -170.5 66.5t-57.5 184.5q1 153 71 212t172 59q80 0 135.5 -30.5zM168 100.5q37 -49.5 115 -49.5q33 0 68.5 9t65.5 26v287q0 39 -30.5 53.5t-82.5 14.5q-100 0 -136.5 -55t-36.5 -150q0 -86 37 -135.5z" />
    <glyph glyph-name="Hcircumflex" unicode="&#x124;" horiz-adv-x="669" 
d="M85 667h72v-300h355v300h72v-667h-72v299h-355v-299h-72v667zM305 839h61l80 -120h-46l-65 70l-65 -70h-46z" />
    <glyph glyph-name="hcircumflex" unicode="&#x125;" horiz-adv-x="575" 
d="M446 455.5q49 -52.5 49 -159.5v-296h-72v296q0 70 -32.5 108t-95.5 38q-70 0 -143 -40v-402h-72v720h72v-254q37 20 76.5 31t74.5 11q94 0 143 -52.5zM83 892h61l80 -120h-46l-65 70l-65 -70h-46z" />
    <glyph glyph-name="Hbar" unicode="&#x126;" horiz-adv-x="669" 
d="M634 478h-50v-478h-72v299h-355v-299h-72v478h-50v53h50v136h72v-136h355v136h72v-136h50v-53zM512 478h-355v-111h355v111z" />
    <glyph glyph-name="hbar" unicode="&#x127;" horiz-adv-x="575" 
d="M446 455.5q49 -52.5 49 -159.5v-296h-72v296q0 70 -32.5 108t-95.5 38q-70 0 -143 -40v-402h-72v577h-90v53h90v90h72v-90h82v-53h-82v-111q37 20 76.5 31t74.5 11q94 0 143 -52.5z" />
    <glyph glyph-name="Itilde" unicode="&#x128;" horiz-adv-x="242" 
d="M85 667h72v-667h-72v667zM-15 727q-4 15 -4 30q0 37 23.5 59.5t53.5 22.5q24 0 42.5 -9.5t43.5 -27.5q16 -13 27 -19.5t23 -6.5t19 8t7 23q0 5 -2 17h52q2 -14 2 -21q0 -37 -23.5 -60t-62.5 -23q-22 0 -41 10t-41 27q-16 13 -26.5 19t-20.5 6q-12 0 -20 -9.5t-8 -27.5
q0 -4 2 -18h-46z" />
    <glyph glyph-name="itilde" unicode="&#x129;" horiz-adv-x="232" 
d="M80 499h72v-499h-72v499zM-25 544q-4 15 -4 30q0 37 23.5 59.5t53.5 22.5q24 0 42.5 -9.5t43.5 -27.5q16 -13 27 -19.5t23 -6.5t19 8t7 23q0 5 -2 17h52q2 -14 2 -21q0 -37 -23.5 -60t-62.5 -23q-22 0 -41 10t-41 27q-16 13 -26.5 19t-20.5 6q-12 0 -20 -9.5t-8 -27.5
q0 -4 2 -18h-46z" />
    <glyph glyph-name="Imacron" unicode="&#x12a;" horiz-adv-x="242" 
d="M85 667h72v-667h-72v667zM4 769h234v-53h-234v53z" />
    <glyph glyph-name="imacron" unicode="&#x12b;" horiz-adv-x="270" 
d="M18 629h233v-53h-233v53zM99 499h72v-499h-72v499z" />
    <glyph glyph-name="Ibreve" unicode="&#x12c;" horiz-adv-x="242" 
d="M85 667h72v-667h-72v667zM34.5 724.5q-36.5 29.5 -48.5 84.5h52q23 -62 83 -62q58 0 83 62h52q-10 -55 -47 -84.5t-88 -29.5q-50 0 -86.5 29.5z" />
    <glyph glyph-name="ibreve" unicode="&#x12d;" horiz-adv-x="232" 
d="M80 499h72v-499h-72v499zM29.5 574.5q-36.5 29.5 -48.5 84.5h52q23 -62 83 -62q58 0 83 62h52q-10 -55 -47 -84.5t-88 -29.5q-50 0 -86.5 29.5z" />
    <glyph glyph-name="Iogonek" unicode="&#x12e;" horiz-adv-x="242" 
d="M90 -42q-25 -22 -25 -43q0 -34 34 -34q28 0 55 27v-63q-32 -18 -60 -18q-41 0 -64.5 22t-23.5 61q0 25 23 54.5t56 44.5v658h72v-667q-42 -20 -67 -42z" />
    <glyph glyph-name="iogonek" unicode="&#x12f;" horiz-adv-x="240" 
d="M160 667v-79h-80v79h80zM84 499h72v-499q-42 -20 -67 -42t-25 -43q0 -34 34 -34q28 0 55 27v-63q-32 -18 -60 -18q-41 0 -64.5 22t-23.5 61q0 25 22.5 54.5t56.5 44.5v490z" />
    <glyph glyph-name="Idotaccent" unicode="&#x130;" horiz-adv-x="242" 
d="M85 667h72v-667h-72v667zM81 783h79v-79h-79v79z" />
    <glyph glyph-name="dotlessi" unicode="&#x131;" horiz-adv-x="232" 
d="M80 499h72v-499h-72v499z" />
    <glyph glyph-name="IJ" unicode="&#x132;" horiz-adv-x="695" 
d="M85 667h72v-667h-72v667zM287 27v75q57 -40 123 -40q68 0 98 33.5t30 109.5v462h72v-468q0 -116 -55.5 -161.5t-135.5 -45.5q-72 0 -132 35z" />
    <glyph glyph-name="ij" unicode="&#x133;" horiz-adv-x="508" 
d="M80 667h80v-79h-80v79zM84 499h72v-499h-72v499zM348 667h80v-79h-80v79zM250 -126q42 1 64 12.5t30 32.5t8 56v524h72v-528q0 -83 -43 -123.5t-131 -40.5v67z" />
    <glyph glyph-name="Jcircumflex" unicode="&#x134;" horiz-adv-x="453" 
d="M45 27v75q57 -40 123 -40q68 0 98 33.5t30 109.5v462h72v-468q0 -116 -55.5 -161.5t-135.5 -45.5q-72 0 -132 35zM307 839h61l80 -120h-46l-65 70l-65 -70h-46z" />
    <glyph glyph-name="jcircumflex" unicode="&#x135;" horiz-adv-x="251" 
d="M120 684h42l80 -120h-56l-45 70l-45 -70h-56zM3 -126q42 1 64 12.5t30 32.5t8 56v524h72v-528q0 -83 -43 -123.5t-131 -40.5v67z" />
    <glyph glyph-name="Kcommaaccent" unicode="&#x136;" horiz-adv-x="613" 
d="M229 301l-72 -79v-222h-72v667h72v-351l316 351h92l-286 -312l309 -355h-100zM267 -139q24 10 32 34.5t8 55.5h60q0 -65 -30 -100t-70 -44v54z" />
    <glyph glyph-name="kcommaaccent" unicode="&#x137;" horiz-adv-x="549" 
d="M92 689h72v-435l225 245h97l-213 -229l240 -270h-95l-192 219l-62 -67v-152h-72v689zM212 -139q25 10 33 34.5t8 55.5h60q0 -65 -30 -100t-71 -44v54z" />
    <glyph glyph-name="kgreenlandic" unicode="&#x138;" horiz-adv-x="549" 
d="M92 499h72v-245l225 245h97l-213 -229l240 -270h-95l-192 219l-62 -67v-152h-72v499z" />
    <glyph glyph-name="Lacute" unicode="&#x139;" horiz-adv-x="523" 
d="M85 667h72v-597h341v-70h-413v667zM164 847h74l-83 -115h-48z" />
    <glyph glyph-name="lacute" unicode="&#x13a;" horiz-adv-x="232" 
d="M80 0v689h72v-689h-72zM155 869h74l-83 -115h-48z" />
    <glyph glyph-name="Lcommaaccent" unicode="&#x13b;" horiz-adv-x="523" 
d="M85 667h72v-597h341v-70h-413v667zM219 -139q24 10 32 34.5t8 55.5h60q0 -65 -30 -100t-70 -44v54z" />
    <glyph glyph-name="lcommaaccent" unicode="&#x13c;" horiz-adv-x="232" 
d="M80 0v689h72v-689h-72zM66 -139q24 10 32 34.5t8 55.5h60q0 -65 -30 -100t-70 -44v54z" />
    <glyph glyph-name="Lcaron" unicode="&#x13d;" horiz-adv-x="538" 
d="M85 667h72v-597h341v-70h-413v667zM378 581q24 10 32 34.5t8 55.5h60q0 -65 -30 -100t-70 -44v54z" />
    <glyph glyph-name="lcaron" unicode="&#x13e;" horiz-adv-x="270" 
d="M101 689h72v-689h-72v689zM207 600q40 15 40 89h60q0 -65 -30 -99.5t-70 -43.5v54z" />
    <glyph glyph-name="Ldot" unicode="&#x13f;" horiz-adv-x="523" 
d="M85 667h72v-597h341v-70h-413v667zM274 371h79v-80h-79v80z" />
    <glyph glyph-name="ldot" unicode="&#x140;" horiz-adv-x="325" 
d="M80 0v689h72v-689h-72zM236 366h79v-80h-79v80z" />
    <glyph glyph-name="Lslash" unicode="&#x141;" horiz-adv-x="521" 
d="M498 70v-70h-413v300l-72 -49v64l72 49v303h72v-255l136 92v-64l-136 -92v-278h341z" />
    <glyph glyph-name="lslash" unicode="&#x142;" horiz-adv-x="270" 
d="M101 339l-66 -44v64l66 44v286h72v-237l78 52v-64l-78 -52v-388h-72v339z" />
    <glyph glyph-name="Nacute" unicode="&#x143;" horiz-adv-x="722" 
d="M637 667v-667h-81l-399 562v-562h-72v667h82l398 -562v562h72zM401 847h74l-83 -115h-48z" />
    <glyph glyph-name="nacute" unicode="&#x144;" 
d="M291 508q105 0 151.5 -46t46.5 -137v-325h-72v325q0 118 -134 118q-62 0 -131 -20v-423h-72v459q97 49 211 49zM317 679h74l-83 -115h-48z" />
    <glyph glyph-name="Ncommaaccent" unicode="&#x145;" horiz-adv-x="722" 
d="M637 667v-667h-81l-399 562v-562h-72v667h82l398 -562v562h72zM312 -139q24 10 32 34.5t8 55.5h60q0 -65 -30 -100t-70 -44v54z" />
    <glyph glyph-name="ncommaaccent" unicode="&#x146;" 
d="M291 508q105 0 151.5 -46t46.5 -137v-325h-72v325q0 118 -134 118q-62 0 -131 -20v-423h-72v459q97 49 211 49zM236 -139q24 10 32 34.5t8 55.5h60q0 -65 -30 -100t-70 -44v54z" />
    <glyph glyph-name="Ncaron" unicode="&#x147;" horiz-adv-x="722" 
d="M637 667v-667h-81l-399 562v-562h-72v667h82l398 -562v562h72zM261 824h56l45 -70l45 70h56l-80 -120h-41z" />
    <glyph glyph-name="ncaron" unicode="&#x148;" 
d="M291 508q105 0 151.5 -46t46.5 -137v-325h-72v325q0 118 -134 118q-62 0 -131 -20v-423h-72v459q97 49 211 49zM185 684h56l45 -70l45 70h56l-80 -120h-41z" />
    <glyph glyph-name="napostrophe" unicode="&#x149;" horiz-adv-x="581" 
d="M32 574q25 10 33 34.5t8 55.5h60q0 -65 -30.5 -100t-70.5 -44v54zM82 459q33 17 88.5 33t122.5 16q94 0 146 -48t52 -135v-325h-72v325q0 47 -26.5 79t-106.5 32q-62 0 -132 -20v-416h-72v459z" />
    <glyph glyph-name="Eng" unicode="&#x14a;" horiz-adv-x="728" 
d="M638 667v-676q0 -82 -43 -122.5t-131 -40.5v67q60 1 80.5 22.5t21.5 70.5v4l-407 570v-562h-72v667h82l397 -562v562h72z" />
    <glyph glyph-name="eng" unicode="&#x14b;" horiz-adv-x="581" 
d="M82 459q33 17 88.5 33t122.5 16q94 0 146 -48t52 -135v-334q0 -82 -43 -122.5t-131 -40.5v67q42 0 64 11.5t30 33t8 56.5v329q0 47 -26.5 79t-106.5 32q-62 0 -132 -20v-416h-72v459z" />
    <glyph glyph-name="Omacron" unicode="&#x14c;" horiz-adv-x="719" 
d="M135.5 76.5q-75.5 86.5 -75.5 256.5t75.5 256.5t223.5 86.5q149 0 224.5 -86.5t75.5 -256.5t-75.5 -256.5t-224.5 -86.5q-148 0 -223.5 86.5zM531 124q54 66 54 209q0 142 -54 208.5t-172 66.5q-117 0 -171 -66.5t-54 -208.5q0 -143 54 -209t171 -66q118 0 172 66z
M250 769h234v-53h-234v53z" />
    <glyph glyph-name="omacron" unicode="&#x14d;" 
d="M112.5 53q-57.5 68 -57.5 195q0 129 58.5 194.5t169.5 65.5q117 0 174 -69.5t57 -190.5q0 -124 -60 -193.5t-169 -69.5q-115 0 -172.5 68zM442 248q0 94 -37 144t-121 50q-157 0 -157 -194q0 -197 157 -197q158 0 158 197zM170 629h234v-53h-234v53z" />
    <glyph glyph-name="Obreve" unicode="&#x14e;" horiz-adv-x="719" 
d="M135.5 76.5q-75.5 86.5 -75.5 256.5t75.5 256.5t223.5 86.5q149 0 224.5 -86.5t75.5 -256.5t-75.5 -256.5t-224.5 -86.5q-148 0 -223.5 86.5zM531 124q54 66 54 209q0 142 -54 208.5t-172 66.5q-117 0 -171 -66.5t-54 -208.5q0 -143 54 -209t171 -66q118 0 172 66z
M280.5 724.5q-36.5 29.5 -48.5 84.5h52q23 -62 83 -62q58 0 83 62h52q-10 -55 -47 -84.5t-88 -29.5q-50 0 -86.5 29.5z" />
    <glyph glyph-name="obreve" unicode="&#x14f;" 
d="M112.5 53q-57.5 68 -57.5 195q0 129 58.5 194.5t169.5 65.5q117 0 174 -69.5t57 -190.5q0 -124 -60 -193.5t-169 -69.5q-115 0 -172.5 68zM442 248q0 94 -37 144t-121 50q-157 0 -157 -194q0 -197 157 -197q158 0 158 197zM200.5 574.5q-36.5 29.5 -48.5 84.5h52
q23 -62 83 -62q58 0 83 62h52q-10 -55 -47 -84.5t-88 -29.5q-50 0 -86.5 29.5z" />
    <glyph glyph-name="Ohungarumlaut" unicode="&#x150;" horiz-adv-x="719" 
d="M135.5 76.5q-75.5 86.5 -75.5 256.5t75.5 256.5t223.5 86.5q149 0 224.5 -86.5t75.5 -256.5t-75.5 -256.5t-224.5 -86.5q-148 0 -223.5 86.5zM531 124q54 66 54 209q0 142 -54 208.5t-172 66.5q-117 0 -171 -66.5t-54 -208.5q0 -143 54 -209t171 -66q118 0 172 66z
M338 819h74l-83 -115h-48zM458 819h74l-83 -115h-48z" />
    <glyph glyph-name="ohungarumlaut" unicode="&#x151;" 
d="M112.5 53q-57.5 68 -57.5 195q0 129 58.5 194.5t169.5 65.5q117 0 174 -69.5t57 -190.5q0 -124 -60 -193.5t-169 -69.5q-115 0 -172.5 68zM442 248q0 94 -37 144t-121 50q-157 0 -157 -194q0 -197 157 -197q158 0 158 197zM258 679h74l-83 -115h-48zM378 679h74l-83 -115
h-48z" />
    <glyph glyph-name="OE" unicode="&#x152;" horiz-adv-x="1082" 
d="M658 599v-228v-2h307v-70h-307v-4v-227h349v-68h-421v79q-75 -89 -227 -89q-148 0 -223.5 86.5t-75.5 256.5t75.5 256.5t223.5 86.5q152 0 227 -89v80h421v-68h-349zM531 124q54 66 54 209q0 142 -54 208.5t-172 66.5q-117 0 -171 -66.5t-54 -208.5q0 -143 54 -209
t171 -66q118 0 172 66z" />
    <glyph glyph-name="oe" unicode="&#x153;" horiz-adv-x="936" 
d="M830 434q53 -74 51 -197h-364q0 -90 42 -138t120 -48q100 0 171 43v-74q-73 -35 -175 -35q-68 0 -118 26.5t-78 78.5q-28 -51 -77.5 -78t-116.5 -27q-115 0 -172.5 68t-57.5 195q0 129 58.5 194.5t169.5 65.5q138 0 195 -100q27 50 74 75t111 25q114 0 167 -74zM442 248
q0 94 -37 144t-121 50q-157 0 -157 -194q0 -197 157 -197q158 0 158 197zM563 411.5q-34 -30.5 -43 -108.5h285q-5 70 -39.5 104.5t-102.5 34.5q-66 0 -100 -30.5z" />
    <glyph glyph-name="Racute" unicode="&#x154;" horiz-adv-x="631" 
d="M501 0l-174 269h-170v-269h-72v667h274q97 0 147 -49t50 -145q0 -77 -41 -130t-110 -66l181 -277h-85zM157 337h169q82 0 120 33t38 98q0 64 -30 97.5t-103 33.5h-194v-262zM335 847h74l-83 -115h-48z" />
    <glyph glyph-name="racute" unicode="&#x155;" horiz-adv-x="377" 
d="M80 459q38 16 100.5 32.5t129.5 16.5q10 0 32 -6v-64q-24 3 -48 3q-33 0 -61 -4t-81 -13v-424h-72v459zM212 679h74l-83 -115h-48z" />
    <glyph glyph-name="Rcommaaccent" unicode="&#x156;" horiz-adv-x="631" 
d="M501 0l-174 269h-170v-269h-72v667h274q97 0 147 -49t50 -145q0 -77 -41 -130t-110 -66l181 -277h-85zM157 337h169q82 0 120 33t38 98q0 64 -30 97.5t-103 33.5h-194v-262zM266 -139q24 10 32 34.5t8 55.5h60q0 -65 -30 -100t-70 -44v54z" />
    <glyph glyph-name="rcommaaccent" unicode="&#x157;" horiz-adv-x="377" 
d="M80 459q38 16 100.5 32.5t129.5 16.5q10 0 32 -6v-64q-24 3 -48 3q-33 0 -61 -4t-81 -13v-424h-72v459zM48 -139q24 10 32 34.5t8 55.5h60q0 -65 -30 -100t-70 -44v54z" />
    <glyph glyph-name="Rcaron" unicode="&#x158;" horiz-adv-x="631" 
d="M501 0l-174 269h-170v-269h-72v667h274q97 0 147 -49t50 -145q0 -77 -41 -130t-110 -66l181 -277h-85zM157 337h169q82 0 120 33t38 98q0 64 -30 97.5t-103 33.5h-194v-262zM195 824h56l45 -70l45 70h56l-80 -120h-41z" />
    <glyph glyph-name="rcaron" unicode="&#x159;" horiz-adv-x="377" 
d="M80 459q38 16 100.5 32.5t129.5 16.5q10 0 32 -6v-64q-24 3 -48 3q-33 0 -61 -4t-81 -13v-424h-72v459zM80 684h56l45 -70l45 70h56l-80 -120h-41z" />
    <glyph glyph-name="Sacute" unicode="&#x15a;" horiz-adv-x="555" 
d="M164 3q-41 13 -99 44v78q36 -30 90.5 -49.5t121.5 -19.5q73 0 109 31t36 84q0 39 -21 64.5t-50 40t-87 36.5q-62 21 -98.5 40t-62.5 56t-26 98q0 41 20.5 80t66 65t117.5 26q53 0 86.5 -10t88.5 -37v-74q-7 4 -37.5 21.5t-63 25.5t-70.5 8q-69 0 -102 -28.5t-33 -71.5
q0 -39 17.5 -63t47 -39t83.5 -33q62 -21 101.5 -41.5t67.5 -58.5t28 -97q0 -79 -52.5 -134t-168.5 -55q-69 0 -110 13zM318 847h74l-83 -115h-48z" />
    <glyph glyph-name="sacute" unicode="&#x15b;" horiz-adv-x="456" 
d="M134 -5q-36 10 -79 32v76q51 -29 83.5 -40.5t77.5 -11.5q50 0 81.5 22t31.5 57q0 31 -19 46.5t-60 31.5l-26 11q-57 16 -88.5 29t-55 41t-23.5 76t25 80t65 47.5t84 15.5q40 0 67.5 -9t75.5 -30v-72q-50 25 -76.5 35t-62.5 10q-44 0 -75 -17.5t-31 -49.5
q0 -26 15.5 -42.5t39 -26t63.5 -20.5q50 -16 79.5 -29t52 -41.5t22.5 -76.5q0 -51 -26 -85.5t-67.5 -51.5t-86.5 -17q-51 0 -87 10zM264 679h74l-83 -115h-48z" />
    <glyph glyph-name="Scircumflex" unicode="&#x15c;" horiz-adv-x="555" 
d="M164 3q-41 13 -99 44v78q36 -30 90.5 -49.5t121.5 -19.5q73 0 109 31t36 84q0 39 -21 64.5t-50 40t-87 36.5q-62 21 -98.5 40t-62.5 56t-26 98q0 41 20.5 80t66 65t117.5 26q53 0 86.5 -10t88.5 -37v-74q-7 4 -37.5 21.5t-63 25.5t-70.5 8q-69 0 -102 -28.5t-33 -71.5
q0 -39 17.5 -63t47 -39t83.5 -33q62 -21 101.5 -41.5t67.5 -58.5t28 -97q0 -79 -52.5 -134t-168.5 -55q-69 0 -110 13zM249 839h61l80 -120h-46l-65 70l-65 -70h-46z" />
    <glyph glyph-name="scircumflex" unicode="&#x15d;" horiz-adv-x="456" 
d="M134 -5q-36 10 -79 32v76q51 -29 83.5 -40.5t77.5 -11.5q50 0 81.5 22t31.5 57q0 31 -19 46.5t-60 31.5l-26 11q-57 16 -88.5 29t-55 41t-23.5 76t25 80t65 47.5t84 15.5q40 0 67.5 -9t75.5 -30v-72q-50 25 -76.5 35t-62.5 10q-44 0 -75 -17.5t-31 -49.5
q0 -26 15.5 -42.5t39 -26t63.5 -20.5q50 -16 79.5 -29t52 -41.5t22.5 -76.5q0 -51 -26 -85.5t-67.5 -51.5t-86.5 -17q-51 0 -87 10zM203 684h61l80 -120h-46l-65 70l-65 -70h-46z" />
    <glyph glyph-name="Scedilla" unicode="&#x15e;" horiz-adv-x="555" 
d="M459 63.5q-36 -50.5 -116 -66.5l-58 -107h-76l71 100h-6q-69 0 -110 13t-99 44v78q36 -30 90.5 -49.5t121.5 -19.5q73 0 109 31t36 84q0 39 -21 64.5t-50 40t-87 36.5q-62 21 -98.5 40t-62.5 56t-26 98q0 41 20.5 80t66 65t117.5 26q53 0 86.5 -10t88.5 -37v-74
q-7 4 -37.5 21.5t-63 25.5t-70.5 8q-69 0 -102 -28.5t-33 -71.5q0 -39 17.5 -63t47 -39t83.5 -33q62 -21 101.5 -41.5t67.5 -58.5t28 -97q0 -65 -36 -115.5z" />
    <glyph glyph-name="scedilla" unicode="&#x15f;" horiz-adv-x="456" 
d="M363.5 40q-37.5 -38 -94.5 -50l-60 -110h-76l75 105q-45 1 -79 11t-74 31v76q51 -29 83.5 -40.5t77.5 -11.5q50 0 81.5 22t31.5 57q0 31 -19 46.5t-60 31.5l-26 11q-57 16 -88.5 29t-55 41t-23.5 76t25 80t65 47.5t84 15.5q40 0 67.5 -9t75.5 -30v-72q-50 25 -76.5 35
t-62.5 10q-44 0 -75 -17.5t-31 -49.5q0 -26 15.5 -42.5t39 -26t63.5 -20.5q50 -16 79.5 -29t52 -41.5t22.5 -76.5q0 -61 -37.5 -99z" />
    <glyph glyph-name="Scaron" unicode="&#x160;" horiz-adv-x="555" 
d="M164 3q-41 13 -99 44v78q36 -30 90.5 -49.5t121.5 -19.5q73 0 109 31t36 84q0 39 -21 64.5t-50 40t-87 36.5q-62 21 -98.5 40t-62.5 56t-26 98q0 41 20.5 80t66 65t117.5 26q53 0 86.5 -10t88.5 -37v-74q-7 4 -37.5 21.5t-63 25.5t-70.5 8q-69 0 -102 -28.5t-33 -71.5
q0 -39 17.5 -63t47 -39t83.5 -33q62 -21 101.5 -41.5t67.5 -58.5t28 -97q0 -79 -52.5 -134t-168.5 -55q-69 0 -110 13zM178 824h56l45 -70l45 70h56l-80 -120h-41z" />
    <glyph glyph-name="scaron" unicode="&#x161;" horiz-adv-x="456" 
d="M134 -5q-36 10 -79 32v76q51 -29 83.5 -40.5t77.5 -11.5q50 0 81.5 22t31.5 57q0 31 -19 46.5t-60 31.5l-26 11q-57 16 -88.5 29t-55 41t-23.5 76t25 80t65 47.5t84 15.5q40 0 67.5 -9t75.5 -30v-72q-50 25 -76.5 35t-62.5 10q-44 0 -75 -17.5t-31 -49.5
q0 -26 15.5 -42.5t39 -26t63.5 -20.5q50 -16 79.5 -29t52 -41.5t22.5 -76.5q0 -51 -26 -85.5t-67.5 -51.5t-86.5 -17q-51 0 -87 10zM132 684h56l45 -70l45 70h56l-80 -120h-41z" />
    <glyph glyph-name="uni0162" unicode="&#x162;" horiz-adv-x="583" 
d="M328 599v-594h33l-63 -115h-76l78 110h-44v599h-236v68h543v-68h-235z" />
    <glyph glyph-name="uni0163" unicode="&#x163;" horiz-adv-x="363" 
d="M184 433v-289q0 -44 14 -64t52 -20q37 0 63 12v-68q-26 -10 -72 -12l-61 -112h-76l82 115h20q-43 9 -68.5 41.5t-25.5 84.5v312h-87v66h87v141h72v-141h129v-66h-129z" />
    <glyph glyph-name="Tcaron" unicode="&#x164;" horiz-adv-x="568" 
d="M182 845h56l46 -71l45 71h56l-81 -121h-41zM248 597h-236v70h543v-70h-235v-597h-72v597z" />
    <glyph glyph-name="tcaron" unicode="&#x165;" horiz-adv-x="378" 
d="M147 25.5q-35 33.5 -35 95.5v312h-87v66h87v141h72v-141h129v-66h-129v-289q0 -44 14 -64t52 -20q37 0 63 12v-68q-14 -5 -35.5 -8.5t-40.5 -3.5q-55 0 -90 33.5zM323 740h82l-84 -196h-72z" />
    <glyph glyph-name="Tbar" unicode="&#x166;" horiz-adv-x="583" 
d="M328 599v-239h86v-53h-86v-307h-72v307h-86v53h86v239h-236v68h543v-68h-235z" />
    <glyph glyph-name="tbar" unicode="&#x167;" horiz-adv-x="345" 
d="M154 21q-43 29 -43 112v111h-74v60h74v129h-87v66h87v141h72v-141h129v-66h-129v-129h114v-60h-114v-115q0 -38 16 -53.5t56 -15.5q33 0 57 12v-68q-33 -12 -66 -12q-49 0 -92 29z" />
    <glyph glyph-name="Utilde" unicode="&#x168;" horiz-adv-x="692" 
d="M153.5 63q-68.5 73 -68.5 209v395h72v-399q0 -210 189 -210q191 0 191 210v399h70v-395q0 -136 -68.5 -209t-192.5 -73t-192.5 73zM210 727q-4 15 -4 30q0 37 23.5 59.5t53.5 22.5q24 0 42.5 -9.5t43.5 -27.5q16 -13 27 -19.5t23 -6.5t19 8t7 23q0 5 -2 17h52
q2 -14 2 -21q0 -37 -23.5 -60t-62.5 -23q-22 0 -41 10t-41 27q-16 13 -26.5 19t-20.5 6q-12 0 -20 -9.5t-8 -27.5q0 -4 2 -18h-46z" />
    <glyph glyph-name="utilde" unicode="&#x169;" horiz-adv-x="578" 
d="M134.5 36.5q-54.5 51.5 -54.5 146.5v316h72v-300q0 -76 33 -111.5t104 -35.5q70 0 103.5 35.5t33.5 111.5v300h72v-316q0 -95 -54.5 -146.5t-154.5 -51.5t-154.5 51.5zM148 544q-4 15 -4 30q0 37 23.5 59.5t53.5 22.5q24 0 42.5 -9.5t43.5 -27.5q16 -13 27 -19.5t23 -6.5
t19 8t7 23q0 5 -2 17h52q2 -14 2 -21q0 -37 -23.5 -60t-62.5 -23q-22 0 -41 10t-41 27q-16 13 -26.5 19t-20.5 6q-12 0 -20 -9.5t-8 -27.5q0 -4 2 -18h-46z" />
    <glyph glyph-name="Umacron" unicode="&#x16a;" horiz-adv-x="692" 
d="M153.5 63q-68.5 73 -68.5 209v395h72v-399q0 -210 189 -210q191 0 191 210v399h70v-395q0 -136 -68.5 -209t-192.5 -73t-192.5 73zM229 769h234v-53h-234v53z" />
    <glyph glyph-name="umacron" unicode="&#x16b;" horiz-adv-x="578" 
d="M134.5 36.5q-54.5 51.5 -54.5 146.5v316h72v-300q0 -76 33 -111.5t104 -35.5q70 0 103.5 35.5t33.5 111.5v300h72v-316q0 -95 -54.5 -146.5t-154.5 -51.5t-154.5 51.5zM172 629h234v-53h-234v53z" />
    <glyph glyph-name="Ubreve" unicode="&#x16c;" horiz-adv-x="692" 
d="M153.5 63q-68.5 73 -68.5 209v395h72v-399q0 -210 189 -210q191 0 191 210v399h70v-395q0 -136 -68.5 -209t-192.5 -73t-192.5 73zM259.5 724.5q-36.5 29.5 -48.5 84.5h52q23 -62 83 -62q58 0 83 62h52q-10 -55 -47 -84.5t-88 -29.5q-50 0 -86.5 29.5z" />
    <glyph glyph-name="ubreve" unicode="&#x16d;" horiz-adv-x="578" 
d="M134.5 36.5q-54.5 51.5 -54.5 146.5v316h72v-300q0 -76 33 -111.5t104 -35.5q70 0 103.5 35.5t33.5 111.5v300h72v-316q0 -95 -54.5 -146.5t-154.5 -51.5t-154.5 51.5zM202.5 574.5q-36.5 29.5 -48.5 84.5h52q23 -62 83 -62q58 0 83 62h52q-10 -55 -47 -84.5t-88 -29.5
q-50 0 -86.5 29.5z" />
    <glyph glyph-name="Uring" unicode="&#x16e;" horiz-adv-x="692" 
d="M153.5 63q-68.5 73 -68.5 209v395h72v-399q0 -210 189 -210q191 0 191 210v399h70v-395q0 -136 -68.5 -209t-192.5 -73t-192.5 73zM268.5 662q-23.5 22 -23.5 70t23.5 70t77.5 22q53 0 77 -22t24 -70t-24 -70t-77 -22q-54 0 -77.5 22zM388.5 694q11.5 11 11.5 38
t-11.5 37.5t-42.5 10.5q-32 0 -43.5 -10.5t-11.5 -37.5t11.5 -38t43.5 -11q31 0 42.5 11z" />
    <glyph glyph-name="uring" unicode="&#x16f;" horiz-adv-x="578" 
d="M134.5 36.5q-54.5 51.5 -54.5 146.5v316h72v-300q0 -76 33 -111.5t104 -35.5q70 0 103.5 35.5t33.5 111.5v300h72v-316q0 -95 -54.5 -146.5t-154.5 -51.5t-154.5 51.5zM211.5 557q-23.5 22 -23.5 70t23.5 70t77.5 22q53 0 77 -22t24 -70t-24 -70t-77 -22q-54 0 -77.5 22z
M331.5 589q11.5 11 11.5 38t-11.5 37.5t-42.5 10.5q-32 0 -43.5 -10.5t-11.5 -37.5t11.5 -38t43.5 -11q31 0 42.5 11z" />
    <glyph glyph-name="Uhungarumlaut" unicode="&#x170;" horiz-adv-x="692" 
d="M153.5 63q-68.5 73 -68.5 209v395h72v-399q0 -210 189 -210q191 0 191 210v399h70v-395q0 -136 -68.5 -209t-192.5 -73t-192.5 73zM317 819h74l-83 -115h-48zM437 819h74l-83 -115h-48z" />
    <glyph glyph-name="uhungarumlaut" unicode="&#x171;" horiz-adv-x="578" 
d="M134.5 36.5q-54.5 51.5 -54.5 146.5v316h72v-300q0 -76 33 -111.5t104 -35.5q70 0 103.5 35.5t33.5 111.5v300h72v-316q0 -95 -54.5 -146.5t-154.5 -51.5t-154.5 51.5zM260 679h74l-83 -115h-48zM380 679h74l-83 -115h-48z" />
    <glyph glyph-name="Uogonek" unicode="&#x172;" horiz-adv-x="692" 
d="M607 667v-395q0 -110 -46 -179.5t-131 -92.5h1q-42 -20 -67 -42t-25 -43q0 -34 34 -34q28 0 55 27v-63q-32 -18 -60 -18q-41 0 -64.5 22t-23.5 61q0 21 12.5 43t35.5 37q-116 6 -179.5 79t-63.5 203v395h72v-399q0 -210 189 -210q191 0 191 210v399h70z" />
    <glyph glyph-name="uogonek" unicode="&#x173;" horiz-adv-x="578" 
d="M498 499v-316q0 -69 -29.5 -116t-84.5 -67h4q-42 -20 -67 -42t-25 -43q0 -34 34 -34q28 0 55 27v-63q-32 -18 -60 -18q-41 0 -64.5 22t-23.5 61q0 19 10.5 39.5t30.5 35.5q-95 3 -146.5 54.5t-51.5 143.5v316h72v-300q0 -76 33 -111.5t104 -35.5q70 0 103.5 35.5
t33.5 111.5v300h72z" />
    <glyph glyph-name="Wcircumflex" unicode="&#x174;" horiz-adv-x="976" 
d="M951 667l-215 -667h-73l-175 553l-175 -553h-74l-214 667h76l180 -569l171 569h72l174 -569l177 569h76zM459 839h61l80 -120h-46l-65 70l-65 -70h-46z" />
    <glyph glyph-name="wcircumflex" unicode="&#x175;" horiz-adv-x="796" 
d="M761 499l-166 -499h-73l-125 414l-123 -414h-73l-166 499h76l130 -417l122 417h69l126 -418l132 418h71zM369 684h61l80 -120h-46l-65 70l-65 -70h-46z" />
    <glyph glyph-name="Ycircumflex" unicode="&#x176;" horiz-adv-x="598" 
d="M333 306v-306h-72v306l-249 361h87l197 -292l198 292h87zM275 839h61l80 -120h-46l-65 70l-65 -70h-46z" />
    <glyph glyph-name="ycircumflex" unicode="&#x177;" horiz-adv-x="540" 
d="M505 499l-214 -548q-31 -80 -72.5 -112t-84.5 -32q-24 0 -47 9v66q20 -9 43 -9q43 0 67 31t45 94l-207 501h82l158 -407l158 407h72zM245 684h61l80 -120h-46l-65 70l-65 -70h-46z" />
    <glyph glyph-name="Ydieresis" unicode="&#x178;" horiz-adv-x="598" 
d="M333 306v-306h-72v306l-249 361h87l197 -292l198 292h87zM191 805h79v-79h-79v79zM339 805h79v-79h-79v79z" />
    <glyph glyph-name="Zacute" unicode="&#x179;" horiz-adv-x="609" 
d="M539 606l-386 -538h386v-68h-475v63l390 536h-380v68h465v-61zM344 847h74l-83 -115h-48z" />
    <glyph glyph-name="zacute" unicode="&#x17a;" horiz-adv-x="455" 
d="M410 436l-282 -372h282v-64h-365v65l279 372h-272v62h358v-63zM259 679h74l-83 -115h-48z" />
    <glyph glyph-name="Zdotaccent" unicode="&#x17b;" horiz-adv-x="609" 
d="M539 606l-386 -538h386v-68h-475v63l390 536h-380v68h465v-61zM265 783h79v-79h-79v79z" />
    <glyph glyph-name="zdotaccent" unicode="&#x17c;" horiz-adv-x="455" 
d="M410 436l-282 -372h282v-64h-365v65l279 372h-272v62h358v-63zM188 643h79v-79h-79v79z" />
    <glyph glyph-name="Zcaron" unicode="&#x17d;" horiz-adv-x="609" 
d="M539 606l-386 -538h386v-68h-475v63l390 536h-380v68h465v-61zM204 824h56l45 -70l45 70h56l-80 -120h-41z" />
    <glyph glyph-name="zcaron" unicode="&#x17e;" horiz-adv-x="455" 
d="M410 436l-282 -372h282v-64h-365v65l279 372h-272v62h358v-63zM127 684h56l45 -70l45 70h56l-80 -120h-41z" />
    <glyph glyph-name="uni018F" unicode="&#x18f;" horiz-adv-x="717" 
d="M575 584.5q82 -87.5 82 -257.5q0 -167 -79 -252.5t-220 -85.5q-154 0 -227 95t-71 256h524q0 131 -63.5 198.5t-178.5 67.5q-73 0 -140 -21t-111 -49v74q51 28 117 45t138 17q147 0 229 -87.5zM476.5 75q46.5 20 72.5 67.5t33 131.5h-447q5 -112 59 -165.5t164 -53.5
q72 0 118.5 20z" />
    <glyph glyph-name="florin" unicode="&#x192;" horiz-adv-x="330" 
d="M10 -120v65q5 -1 18 -1q32 0 52.5 6t35.5 31t15 79v373h-87v66h87v9q0 83 29 123.5t62.5 50t69.5 9.5q12 0 30 -2v-65l-18 1q-32 0 -52.5 -6t-35.5 -31t-15 -79v-10h121v-66h-121v-372q0 -83 -29 -123.5t-62.5 -50t-69.5 -9.5q-21 0 -30 2z" />
    <glyph glyph-name="uni019D" unicode="&#x19d;" horiz-adv-x="749" 
d="M664 667v-667h-81l-399 562v-591q0 -83 -43 -123.5t-131 -40.5v67q42 1 64 12.5t30 32.5t8 56v692h82l398 -562v562h72z" />
    <glyph glyph-name="Ohorn" unicode="&#x1a0;" horiz-adv-x="719" 
d="M659 333q0 -170 -75.5 -256.5t-224.5 -86.5q-148 0 -223.5 86.5t-75.5 256.5t75.5 256.5t223.5 86.5q59 0 107 -14q25 5 43.5 24t18.5 43v26h54v-28q0 -30 -13 -54.5t-35 -40.5q125 -78 125 -299zM531 124q54 66 54 209q0 142 -54 208.5t-172 66.5q-117 0 -171 -66.5
t-54 -208.5q0 -143 54 -209t171 -66q118 0 172 66z" />
    <glyph glyph-name="ohorn" unicode="&#x1a1;" 
d="M492 378.5q22 -56.5 22 -130.5q0 -124 -60 -193.5t-169 -69.5q-115 0 -172.5 68t-57.5 195q0 129 58.5 194.5t169.5 65.5q41 0 74 -9q27 2 47.5 22t20.5 46v26h54v-28q0 -32 -14.5 -57t-38.5 -41q44 -32 66 -88.5zM442 248q0 94 -37 144t-121 50q-157 0 -157 -194
q0 -197 157 -197q158 0 158 197z" />
    <glyph glyph-name="Uhorn" unicode="&#x1af;" horiz-adv-x="742" 
d="M694 760v-28q0 -43 -24.5 -72.5t-62.5 -40.5v-347q0 -136 -68.5 -209t-192.5 -73t-192.5 73t-68.5 209v395h72v-399q0 -210 189 -210q191 0 191 210v399h41q25 5 43.5 24t18.5 43v26h54z" />
    <glyph glyph-name="uhorn" unicode="&#x1b0;" horiz-adv-x="578" 
d="M577 593v-28q0 -41 -22 -69.5t-57 -40.5v-272q0 -95 -54.5 -146.5t-154.5 -51.5t-154.5 51.5t-54.5 146.5v316h72v-300q0 -76 33 -111.5t104 -35.5q70 0 103.5 35.5t33.5 111.5v300h23q28 0 51 20.5t23 47.5v26h54z" />
    <glyph glyph-name="uni01C4" unicode="&#x1c4;" horiz-adv-x="1276" 
d="M85 667h209q156 0 234.5 -83.5t78.5 -249.5q0 -334 -313 -334h-209v667zM289 68q127 0 185.5 64t58.5 202t-58.5 202t-185.5 64h-132v-532h132zM1206 606l-386 -538h386v-68h-475v63l390 536h-380v68h465v-61zM871 824h56l45 -70l45 70h56l-80 -120h-41z" />
    <glyph glyph-name="uni01C5" unicode="&#x1c5;" horiz-adv-x="1122" 
d="M85 667h209q156 0 234.5 -83.5t78.5 -249.5q0 -334 -313 -334h-209v667zM289 68q127 0 185.5 64t58.5 202t-58.5 202t-185.5 64h-132v-532h132zM1077 436l-282 -372h282v-64h-365v65l279 372h-272v62h358v-63zM794 684h56l45 -70l45 70h56l-80 -120h-41z" />
    <glyph glyph-name="uni01C6" unicode="&#x1c6;" horiz-adv-x="1024" 
d="M489 710v-624q0 -51 -64.5 -76t-140.5 -25q-92 0 -160 59.5t-69 211.5q0 118 57.5 184.5t170.5 66.5q26 0 64.5 -8.5t69.5 -20.5v232h72zM417 406q-30 17 -65.5 26t-68.5 9q-78 0 -115 -49.5t-37 -135.5q0 -94 34 -149.5t123 -55.5q53 0 91 12t38 30v313zM979 436
l-282 -372h282v-64h-365v65l279 372h-272v62h358v-63zM696 684h56l45 -70l45 70h56l-80 -120h-41z" />
    <glyph glyph-name="uni01C7" unicode="&#x1c7;" horiz-adv-x="976" 
d="M85 667h72v-597h341v-70h-413v667zM568 27v75q57 -40 123 -40q68 0 98 33.5t30 109.5v462h72v-468q0 -116 -55.5 -161.5t-135.5 -45.5q-72 0 -132 35z" />
    <glyph glyph-name="uni01C8" unicode="&#x1c8;" horiz-adv-x="791" 
d="M85 667h72v-597h341v-70h-413v667zM631 667h80v-79h-80v79zM533 -126q42 1 64 12.5t30 32.5t8 56v524h72v-528q0 -83 -43 -123.5t-131 -40.5v67z" />
    <glyph glyph-name="uni01C9" unicode="&#x1c9;" horiz-adv-x="500" 
d="M80 0v689h72v-689h-72zM340 667h80v-79h-80v79zM242 -126q42 1 64 12.5t30 32.5t8 56v524h72v-528q0 -83 -43 -123.5t-131 -40.5v67z" />
    <glyph glyph-name="uni01CA" unicode="&#x1ca;" horiz-adv-x="1175" 
d="M637 667v-667h-81l-399 562v-562h-72v667h82l398 -562v562h72zM767 27v75q57 -40 123 -40q68 0 98 33.5t30 109.5v462h72v-468q0 -116 -55.5 -161.5t-135.5 -45.5q-72 0 -132 35z" />
    <glyph glyph-name="uni01CB" unicode="&#x1cb;" horiz-adv-x="990" 
d="M637 667v-667h-81l-399 562v-562h-72v667h82l398 -562v562h72zM830 667h80v-79h-80v79zM732 -126q42 1 64 12.5t30 32.5t8 56v524h72v-528q0 -83 -43 -123.5t-131 -40.5v67z" />
    <glyph glyph-name="uni01CC" unicode="&#x1cc;" horiz-adv-x="837" 
d="M291 508q105 0 151.5 -46t46.5 -137v-325h-72v325q0 118 -134 118q-62 0 -131 -20v-423h-72v459q97 49 211 49zM677 667h80v-79h-80v79zM579 -126q42 1 64 12.5t30 32.5t8 56v524h72v-528q0 -83 -43 -123.5t-131 -40.5v67z" />
    <glyph glyph-name="uni01CD" unicode="&#x1cd;" horiz-adv-x="643" 
d="M466 208h-288l-80 -208h-78l266 667h72l265 -667h-77zM439 277l-117 305l-117 -305h234zM222 824h56l45 -70l45 70h56l-80 -120h-41z" />
    <glyph glyph-name="uni01CE" unicode="&#x1ce;" horiz-adv-x="554" 
d="M425.5 467q48.5 -41 48.5 -119v-242q0 -72 -59 -96.5t-163 -24.5q-79 0 -135.5 35t-56.5 117q0 89 49 129.5t135 40.5q97 0 157 -35v59q0 112 -131 112q-43 0 -87 -12t-74 -36v72q30 19 81.5 30t102.5 11q84 0 132.5 -41zM370 59.5q31 10.5 31 42.5v112q-27 13 -63 20.5
t-75 7.5q-63 0 -97 -24t-34 -70q0 -52 40 -75.5t97 -23.5q70 0 101 10.5zM190 684h56l45 -70l45 70h56l-80 -120h-41z" />
    <glyph glyph-name="uni01CF" unicode="&#x1cf;" horiz-adv-x="242" 
d="M85 667h72v-667h-72v667zM20 824h56l45 -70l45 70h56l-80 -120h-41z" />
    <glyph glyph-name="uni01D0" unicode="&#x1d0;" horiz-adv-x="232" 
d="M80 499h72v-499h-72v499zM15 684h56l45 -70l45 70h56l-80 -120h-41z" />
    <glyph glyph-name="uni01D1" unicode="&#x1d1;" horiz-adv-x="719" 
d="M135.5 76.5q-75.5 86.5 -75.5 256.5t75.5 256.5t223.5 86.5q149 0 224.5 -86.5t75.5 -256.5t-75.5 -256.5t-224.5 -86.5q-148 0 -223.5 86.5zM531 124q54 66 54 209q0 142 -54 208.5t-172 66.5q-117 0 -171 -66.5t-54 -208.5q0 -143 54 -209t171 -66q118 0 172 66z
M266 824h56l45 -70l45 70h56l-80 -120h-41z" />
    <glyph glyph-name="uni01D2" unicode="&#x1d2;" 
d="M112.5 53q-57.5 68 -57.5 195q0 129 58.5 194.5t169.5 65.5q117 0 174 -69.5t57 -190.5q0 -124 -60 -193.5t-169 -69.5q-115 0 -172.5 68zM442 248q0 94 -37 144t-121 50q-157 0 -157 -194q0 -197 157 -197q158 0 158 197zM186 684h56l45 -70l45 70h56l-80 -120h-41z" />
    <glyph glyph-name="uni01D3" unicode="&#x1d3;" horiz-adv-x="692" 
d="M153.5 63q-68.5 73 -68.5 209v395h72v-399q0 -210 189 -210q191 0 191 210v399h70v-395q0 -136 -68.5 -209t-192.5 -73t-192.5 73zM245 824h56l45 -70l45 70h56l-80 -120h-41z" />
    <glyph glyph-name="uni01D4" unicode="&#x1d4;" horiz-adv-x="578" 
d="M134.5 36.5q-54.5 51.5 -54.5 146.5v316h72v-300q0 -76 33 -111.5t104 -35.5q70 0 103.5 35.5t33.5 111.5v300h72v-316q0 -95 -54.5 -146.5t-154.5 -51.5t-154.5 51.5zM188 684h56l45 -70l45 70h56l-80 -120h-41z" />
    <glyph glyph-name="Gcaron" unicode="&#x1e6;" horiz-adv-x="687" 
d="M137.5 77q-77.5 87 -77.5 257t77.5 256t231.5 86q114 0 210 -45v-75q-55 24 -104 38t-98 14q-127 0 -186 -66.5t-59 -207.5q0 -142 59 -208.5t186 -66.5q80 0 153 24v190h-161v70h233v-301q-108 -52 -233 -52q-154 0 -231.5 87zM263 824h56l45 -70l45 70h56l-80 -120h-41
z" />
    <glyph glyph-name="gcaron" unicode="&#x1e7;" 
d="M433.5 476.5q55.5 -30.5 55.5 -93.5v-404q0 -74 -48 -125.5t-169 -51.5q-34 0 -63.5 5.5t-51 11t-27.5 6.5v68q39 -11 68.5 -17t65.5 -6q91 0 122 30t31 77v37q-31 -12 -69.5 -20.5t-64.5 -8.5q-113 0 -170.5 66.5t-57.5 184.5q1 153 71 212t172 59q80 0 135.5 -30.5z
M168 100.5q37 -49.5 115 -49.5q33 0 68.5 9t65.5 26v287q0 39 -30.5 53.5t-82.5 14.5q-100 0 -136.5 -55t-36.5 -150q0 -86 37 -135.5zM210 684h56l45 -70l45 70h56l-80 -120h-41z" />
    <glyph glyph-name="uni01EA" unicode="&#x1ea;" horiz-adv-x="719" 
d="M380.5 -43q-24.5 -22 -24.5 -42q0 -34 34 -34q28 0 55 27v-63q-32 -18 -60 -18q-41 0 -64.5 22t-23.5 61q0 21 12.5 42.5t35.5 37.5q-142 4 -213.5 90.5t-71.5 252.5q0 170 75.5 256.5t223.5 86.5q149 0 224.5 -86.5t75.5 -256.5q0 -288 -214 -335q-40 -19 -64.5 -41z
M188 124q54 -66 171 -66q118 0 172 66t54 209q0 142 -54 208.5t-172 66.5q-117 0 -171 -66.5t-54 -208.5q0 -143 54 -209z" />
    <glyph glyph-name="uni01EB" unicode="&#x1eb;" 
d="M478.5 90q-35.5 -64 -102.5 -90h4q-42 -20 -67 -42t-25 -43q0 -34 34 -34q28 0 55 27v-63q-32 -18 -60 -18q-41 0 -64.5 22t-23.5 61q0 19 10.5 39.5t30.5 35.5q-108 4 -161.5 72t-53.5 191q0 129 58.5 194.5t169.5 65.5q117 0 174 -69.5t57 -190.5q0 -94 -35.5 -158z
M442 248q0 94 -37 144t-121 50q-157 0 -157 -194q0 -197 157 -197q158 0 158 197z" />
    <glyph glyph-name="uni01F2" unicode="&#x1f2;" horiz-adv-x="1122" 
d="M85 667h209q156 0 234.5 -83.5t78.5 -249.5q0 -334 -313 -334h-209v667zM289 68q127 0 185.5 64t58.5 202t-58.5 202t-185.5 64h-132v-532h132zM1077 436l-282 -372h282v-64h-365v65l279 372h-272v62h358v-63z" />
    <glyph glyph-name="uni01F4" unicode="&#x1f4;" horiz-adv-x="687" 
d="M137.5 77q-77.5 87 -77.5 257t77.5 256t231.5 86q114 0 210 -45v-75q-55 24 -104 38t-98 14q-127 0 -186 -66.5t-59 -207.5q0 -142 59 -208.5t186 -66.5q80 0 153 24v190h-161v70h233v-301q-108 -52 -233 -52q-154 0 -231.5 87zM403 847h74l-83 -115h-48z" />
    <glyph glyph-name="Aringacute" unicode="&#x1fa;" horiz-adv-x="643" 
d="M353 869h-48l57 115h74zM466 208h-288l-80 -208h-78l257 645q-29 8 -42 29t-13 58q0 48 23.5 70t77.5 22q53 0 77 -22t24 -70q0 -37 -13.5 -58.5t-43.5 -28.5l256 -645h-77zM279.5 769.5q-11.5 -10.5 -11.5 -37.5t11.5 -38t43.5 -11q31 0 42.5 11t11.5 38t-11.5 37.5
t-42.5 10.5q-32 0 -43.5 -10.5zM439 277l-117 305l-117 -305h234z" />
    <glyph glyph-name="aringacute" unicode="&#x1fb;" horiz-adv-x="554" 
d="M425.5 467q48.5 -41 48.5 -119v-242q0 -72 -59 -96.5t-163 -24.5q-79 0 -135.5 35t-56.5 117q0 89 49 129.5t135 40.5q97 0 157 -35v59q0 112 -131 112q-43 0 -87 -12t-74 -36v72q30 19 81.5 30t102.5 11q84 0 132.5 -41zM370 59.5q31 10.5 31 42.5v112q-27 13 -63 20.5
t-75 7.5q-63 0 -97 -24t-34 -70q0 -52 40 -75.5t97 -23.5q70 0 101 10.5zM213.5 557q-23.5 22 -23.5 70t23.5 70t77.5 22q53 0 77 -22t24 -70t-24 -70t-77 -22q-54 0 -77.5 22zM333.5 589q11.5 11 11.5 38t-11.5 37.5t-42.5 10.5q-32 0 -43.5 -10.5t-11.5 -37.5t11.5 -38
t43.5 -11q31 0 42.5 11zM322 889h74l-83 -115h-48z" />
    <glyph glyph-name="AEacute" unicode="&#x1fc;" horiz-adv-x="957" 
d="M545 598v-230h296v-70h-296v-229h337v-69h-409v209h-228l-142 -209h-83l456 667h406v-69h-337zM473 281v265l-180 -265h180zM715 847h74l-83 -115h-48z" />
    <glyph glyph-name="aeacute" unicode="&#x1fd;" horiz-adv-x="893" 
d="M787 434q53 -74 51 -197h-364q0 -90 42 -138t120 -48q100 0 171 43v-74q-73 -35 -175 -35q-115 0 -175 70q-37 -31 -82.5 -50.5t-105.5 -19.5q-98 0 -153.5 37t-55.5 115q0 91 57.5 130.5t153.5 39.5q78 0 130 -29v53q0 112 -131 112q-43 0 -87 -12t-74 -36v72
q30 19 81.5 30t102.5 11q115 0 160 -73q55 73 167 73q114 0 167 -74zM520 411.5q-34 -30.5 -43 -108.5h285q-5 70 -39.5 104.5t-102.5 34.5q-66 0 -100 -30.5zM358 63.5q43 14.5 68 40.5q-21 49 -24 109q-27 13 -63.5 21t-75.5 8q-66 0 -98.5 -24.5t-32.5 -74.5
q0 -49 39.5 -71.5t97.5 -22.5q46 0 89 14.5zM486 679h74l-83 -115h-48z" />
    <glyph glyph-name="Oslashacute" unicode="&#x1fe;" horiz-adv-x="719" 
d="M601 567q58 -83 58 -234q0 -170 -75.5 -256.5t-224.5 -86.5q-122 0 -196 59l-41 -49h-65l71 85q-68 86 -68 248q0 170 75.5 256.5t223.5 86.5q135 0 209 -70l51 61h66zM176 141l346 411q-55 56 -163 56q-117 0 -171 -66.5t-54 -208.5q0 -127 42 -192zM552 509l-343 -406
q52 -45 150 -45q118 0 172 66t54 209q0 112 -33 176zM399 847h74l-83 -115h-48z" />
    <glyph glyph-name="oslashacute" unicode="&#x1ff;" horiz-adv-x="574" 
d="M470 421q44 -65 44 -173q0 -124 -60 -193.5t-169 -69.5q-91 0 -146 43l-24 -28h-78l61 72q-43 65 -43 176q0 129 58.5 194.5t169.5 65.5q91 0 146 -43l29 34h78zM147 131l238 281q-38 30 -101 30q-157 0 -157 -194q0 -71 20 -117zM422 364l-238 -282q37 -31 100 -31
q158 0 158 197q0 72 -20 116zM318 679h74l-83 -115h-48z" />
    <glyph glyph-name="uni0200" unicode="&#x200;" horiz-adv-x="643" 
d="M466 208h-288l-80 -208h-78l266 667h72l265 -667h-77zM439 277l-117 305l-117 -305h234zM161 847h74l57 -115h-48zM284 847h74l57 -115h-48z" />
    <glyph glyph-name="uni0201" unicode="&#x201;" horiz-adv-x="554" 
d="M425.5 467q48.5 -41 48.5 -119v-242q0 -72 -59 -96.5t-163 -24.5q-79 0 -135.5 35t-56.5 117q0 89 49 129.5t135 40.5q97 0 157 -35v59q0 112 -131 112q-43 0 -87 -12t-74 -36v72q30 19 81.5 30t102.5 11q84 0 132.5 -41zM370 59.5q31 10.5 31 42.5v112q-27 13 -63 20.5
t-75 7.5q-63 0 -97 -24t-34 -70q0 -52 40 -75.5t97 -23.5q70 0 101 10.5zM146 679h73l57 -115h-47zM280 679h73l57 -115h-47z" />
    <glyph glyph-name="uni0202" unicode="&#x202;" horiz-adv-x="643" 
d="M466 208h-288l-80 -208h-78l266 667h72l265 -667h-77zM439 277l-117 305l-117 -305h234zM411 759.5q37 -29.5 47 -84.5h-52q-25 62 -83 62q-60 0 -83 -62h-52q12 55 48.5 84.5t86.5 29.5q51 0 88 -29.5z" />
    <glyph glyph-name="uni0203" unicode="&#x203;" horiz-adv-x="554" 
d="M425.5 467q48.5 -41 48.5 -119v-242q0 -72 -59 -96.5t-163 -24.5q-79 0 -135.5 35t-56.5 117q0 89 49 129.5t135 40.5q97 0 157 -35v59q0 112 -131 112q-43 0 -87 -12t-74 -36v72q30 19 81.5 30t102.5 11q84 0 132.5 -41zM370 59.5q31 10.5 31 42.5v112q-27 13 -63 20.5
t-75 7.5q-63 0 -97 -24t-34 -70q0 -52 40 -75.5t97 -23.5q70 0 101 10.5zM379 619.5q37 -29.5 47 -84.5h-52q-25 62 -83 62q-60 0 -83 -62h-52q12 55 48.5 84.5t86.5 29.5q51 0 88 -29.5z" />
    <glyph glyph-name="uni0204" unicode="&#x204;" horiz-adv-x="581" 
d="M85 667h421v-68h-349v-230h307v-70h-307v-231h349v-68h-421v667zM145 847h74l57 -115h-48zM268 847h74l57 -115h-48z" />
    <glyph glyph-name="uni0205" unicode="&#x205;" horiz-adv-x="547" 
d="M441 434q53 -74 51 -197h-364q0 -90 42 -138t120 -48q100 0 171 43v-74q-73 -35 -175 -35q-109 0 -170 67.5t-61 197.5q0 127 57.5 192.5t161.5 65.5q114 0 167 -74zM174 411.5q-34 -30.5 -43 -108.5h285q-5 70 -39.5 104.5t-102.5 34.5q-66 0 -100 -30.5zM138 679h73
l57 -115h-47zM272 679h73l57 -115h-47z" />
    <glyph glyph-name="uni0206" unicode="&#x206;" horiz-adv-x="581" 
d="M85 667h421v-68h-349v-230h307v-70h-307v-231h349v-68h-421v667zM395 759.5q37 -29.5 47 -84.5h-52q-25 62 -83 62q-60 0 -83 -62h-52q12 55 48.5 84.5t86.5 29.5q51 0 88 -29.5z" />
    <glyph glyph-name="uni0207" unicode="&#x207;" horiz-adv-x="547" 
d="M441 434q53 -74 51 -197h-364q0 -90 42 -138t120 -48q100 0 171 43v-74q-73 -35 -175 -35q-109 0 -170 67.5t-61 197.5q0 127 57.5 192.5t161.5 65.5q114 0 167 -74zM174 411.5q-34 -30.5 -43 -108.5h285q-5 70 -39.5 104.5t-102.5 34.5q-66 0 -100 -30.5zM371 619.5
q37 -29.5 47 -84.5h-52q-25 62 -83 62q-60 0 -83 -62h-52q12 55 48.5 84.5t86.5 29.5q51 0 88 -29.5z" />
    <glyph glyph-name="uni0208" unicode="&#x208;" horiz-adv-x="242" 
d="M85 667h72v-667h-72v667zM-41 847h74l57 -115h-48zM82 847h74l57 -115h-48z" />
    <glyph glyph-name="uni0209" unicode="&#x209;" horiz-adv-x="232" 
d="M80 499h72v-499h-72v499zM-29 679h73l57 -115h-47zM105 679h73l57 -115h-47z" />
    <glyph glyph-name="uni020A" unicode="&#x20a;" horiz-adv-x="242" 
d="M85 667h72v-667h-72v667zM209 759.5q37 -29.5 47 -84.5h-52q-25 62 -83 62q-60 0 -83 -62h-52q12 55 48.5 84.5t86.5 29.5q51 0 88 -29.5z" />
    <glyph glyph-name="uni020B" unicode="&#x20b;" horiz-adv-x="232" 
d="M80 499h72v-499h-72v499zM204 619.5q37 -29.5 47 -84.5h-52q-25 62 -83 62q-60 0 -83 -62h-52q12 55 48.5 84.5t86.5 29.5q51 0 88 -29.5z" />
    <glyph glyph-name="uni020C" unicode="&#x20c;" horiz-adv-x="719" 
d="M135.5 76.5q-75.5 86.5 -75.5 256.5t75.5 256.5t223.5 86.5q149 0 224.5 -86.5t75.5 -256.5t-75.5 -256.5t-224.5 -86.5q-148 0 -223.5 86.5zM531 124q54 66 54 209q0 142 -54 208.5t-172 66.5q-117 0 -171 -66.5t-54 -208.5q0 -143 54 -209t171 -66q118 0 172 66z
M205 847h74l57 -115h-48zM328 847h74l57 -115h-48z" />
    <glyph glyph-name="uni020D" unicode="&#x20d;" 
d="M112.5 53q-57.5 68 -57.5 195q0 129 58.5 194.5t169.5 65.5q117 0 174 -69.5t57 -190.5q0 -124 -60 -193.5t-169 -69.5q-115 0 -172.5 68zM442 248q0 94 -37 144t-121 50q-157 0 -157 -194q0 -197 157 -197q158 0 158 197zM142 679h73l57 -115h-47zM276 679h73l57 -115
h-47z" />
    <glyph glyph-name="uni020E" unicode="&#x20e;" horiz-adv-x="719" 
d="M135.5 76.5q-75.5 86.5 -75.5 256.5t75.5 256.5t223.5 86.5q149 0 224.5 -86.5t75.5 -256.5t-75.5 -256.5t-224.5 -86.5q-148 0 -223.5 86.5zM531 124q54 66 54 209q0 142 -54 208.5t-172 66.5q-117 0 -171 -66.5t-54 -208.5q0 -143 54 -209t171 -66q118 0 172 66z
M455 759.5q37 -29.5 47 -84.5h-52q-25 62 -83 62q-60 0 -83 -62h-52q12 55 48.5 84.5t86.5 29.5q51 0 88 -29.5z" />
    <glyph glyph-name="uni020F" unicode="&#x20f;" 
d="M112.5 53q-57.5 68 -57.5 195q0 129 58.5 194.5t169.5 65.5q117 0 174 -69.5t57 -190.5q0 -124 -60 -193.5t-169 -69.5q-115 0 -172.5 68zM442 248q0 94 -37 144t-121 50q-157 0 -157 -194q0 -197 157 -197q158 0 158 197zM375 619.5q37 -29.5 47 -84.5h-52
q-25 62 -83 62q-60 0 -83 -62h-52q12 55 48.5 84.5t86.5 29.5q51 0 88 -29.5z" />
    <glyph glyph-name="uni0210" unicode="&#x210;" horiz-adv-x="631" 
d="M501 0l-174 269h-170v-269h-72v667h274q97 0 147 -49t50 -145q0 -77 -41 -130t-110 -66l181 -277h-85zM157 337h169q82 0 120 33t38 98q0 64 -30 97.5t-103 33.5h-194v-262zM134 847h74l57 -115h-48zM257 847h74l57 -115h-48z" />
    <glyph glyph-name="uni0211" unicode="&#x211;" horiz-adv-x="377" 
d="M80 459q38 16 100.5 32.5t129.5 16.5q10 0 32 -6v-64q-24 3 -48 3q-33 0 -61 -4t-81 -13v-424h-72v459zM36 679h73l57 -115h-47zM170 679h73l57 -115h-47z" />
    <glyph glyph-name="uni0212" unicode="&#x212;" horiz-adv-x="631" 
d="M501 0l-174 269h-170v-269h-72v667h274q97 0 147 -49t50 -145q0 -77 -41 -130t-110 -66l181 -277h-85zM157 337h169q82 0 120 33t38 98q0 64 -30 97.5t-103 33.5h-194v-262zM384 759.5q37 -29.5 47 -84.5h-52q-25 62 -83 62q-60 0 -83 -62h-52q12 55 48.5 84.5t86.5 29.5
q51 0 88 -29.5z" />
    <glyph glyph-name="uni0213" unicode="&#x213;" horiz-adv-x="377" 
d="M80 459q38 16 100.5 32.5t129.5 16.5q10 0 32 -6v-64q-24 3 -48 3q-33 0 -61 -4t-81 -13v-424h-72v459zM269 619.5q37 -29.5 47 -84.5h-52q-25 62 -83 62q-60 0 -83 -62h-52q12 55 48.5 84.5t86.5 29.5q51 0 88 -29.5z" />
    <glyph glyph-name="uni0214" unicode="&#x214;" horiz-adv-x="692" 
d="M153.5 63q-68.5 73 -68.5 209v395h72v-399q0 -210 189 -210q191 0 191 210v399h70v-395q0 -136 -68.5 -209t-192.5 -73t-192.5 73zM184 847h74l57 -115h-48zM307 847h74l57 -115h-48z" />
    <glyph glyph-name="uni0215" unicode="&#x215;" horiz-adv-x="578" 
d="M134.5 36.5q-54.5 51.5 -54.5 146.5v316h72v-300q0 -76 33 -111.5t104 -35.5q70 0 103.5 35.5t33.5 111.5v300h72v-316q0 -95 -54.5 -146.5t-154.5 -51.5t-154.5 51.5zM144 679h73l57 -115h-47zM278 679h73l57 -115h-47z" />
    <glyph glyph-name="uni0216" unicode="&#x216;" horiz-adv-x="692" 
d="M153.5 63q-68.5 73 -68.5 209v395h72v-399q0 -210 189 -210q191 0 191 210v399h70v-395q0 -136 -68.5 -209t-192.5 -73t-192.5 73zM434 759.5q37 -29.5 47 -84.5h-52q-25 62 -83 62q-60 0 -83 -62h-52q12 55 48.5 84.5t86.5 29.5q51 0 88 -29.5z" />
    <glyph glyph-name="uni0217" unicode="&#x217;" horiz-adv-x="578" 
d="M134.5 36.5q-54.5 51.5 -54.5 146.5v316h72v-300q0 -76 33 -111.5t104 -35.5q70 0 103.5 35.5t33.5 111.5v300h72v-316q0 -95 -54.5 -146.5t-154.5 -51.5t-154.5 51.5zM377 619.5q37 -29.5 47 -84.5h-52q-25 62 -83 62q-60 0 -83 -62h-52q12 55 48.5 84.5t86.5 29.5
q51 0 88 -29.5z" />
    <glyph glyph-name="Scommaaccent" unicode="&#x218;" horiz-adv-x="555" 
d="M164 3q-41 13 -99 44v78q36 -30 90.5 -49.5t121.5 -19.5q73 0 109 31t36 84q0 39 -21 64.5t-50 40t-87 36.5q-62 21 -98.5 40t-62.5 56t-26 98q0 41 20.5 80t66 65t117.5 26q53 0 86.5 -10t88.5 -37v-74q-7 4 -37.5 21.5t-63 25.5t-70.5 8q-69 0 -102 -28.5t-33 -71.5
q0 -39 17.5 -63t47 -39t83.5 -33q62 -21 101.5 -41.5t67.5 -58.5t28 -97q0 -79 -52.5 -134t-168.5 -55q-69 0 -110 13zM229 -139q24 10 32 34.5t8 55.5h60q0 -65 -30 -100t-70 -44v54z" />
    <glyph glyph-name="scommaaccent" unicode="&#x219;" horiz-adv-x="456" 
d="M134 -5q-36 10 -79 32v76q51 -29 83.5 -40.5t77.5 -11.5q50 0 81.5 22t31.5 57q0 31 -19 46.5t-60 31.5l-26 11q-57 16 -88.5 29t-55 41t-23.5 76t25 80t65 47.5t84 15.5q40 0 67.5 -9t75.5 -30v-72q-50 25 -76.5 35t-62.5 10q-44 0 -75 -17.5t-31 -49.5
q0 -26 15.5 -42.5t39 -26t63.5 -20.5q50 -16 79.5 -29t52 -41.5t22.5 -76.5q0 -51 -26 -85.5t-67.5 -51.5t-86.5 -17q-51 0 -87 10zM153 -139q24 10 32 34.5t8 55.5h60q0 -65 -30 -100t-70 -44v54z" />
    <glyph glyph-name="uni021B" unicode="&#x21b;" horiz-adv-x="345" 
d="M154 21q-43 29 -43 112v300h-87v66h87v141h72v-141h129v-66h-129v-304q0 -38 16 -53.5t56 -15.5q33 0 57 12v-68q-33 -12 -66 -12q-49 0 -92 29zM155 -139q41 17 41 90h59q0 -65 -30 -100t-70 -44v54z" />
    <glyph glyph-name="uni0226" unicode="&#x226;" horiz-adv-x="643" 
d="M466 208h-288l-80 -208h-78l266 667h72l265 -667h-77zM439 277l-117 305l-117 -305h234zM283 783h79v-79h-79v79z" />
    <glyph glyph-name="uni022A" unicode="&#x22a;" horiz-adv-x="719" 
d="M135.5 76.5q-75.5 86.5 -75.5 256.5t75.5 256.5t223.5 86.5q149 0 224.5 -86.5t75.5 -256.5t-75.5 -256.5t-224.5 -86.5q-148 0 -223.5 86.5zM531 124q54 66 54 209q0 142 -54 208.5t-172 66.5q-117 0 -171 -66.5t-54 -208.5q0 -143 54 -209t171 -66q118 0 172 66z
M253 805h79v-79h-79v79zM401 805h79v-79h-79v79zM250 937h234v-53h-234v53z" />
    <glyph glyph-name="uni022B" unicode="&#x22b;" 
d="M112.5 53q-57.5 68 -57.5 195q0 129 58.5 194.5t169.5 65.5q117 0 174 -69.5t57 -190.5q0 -124 -60 -193.5t-169 -69.5q-115 0 -172.5 68zM442 248q0 94 -37 144t-121 50q-157 0 -157 -194q0 -197 157 -197q158 0 158 197zM173 643h79v-79h-79v79zM321 643h79v-79h-79v79
zM170 773h234v-53h-234v53z" />
    <glyph glyph-name="uni022C" unicode="&#x22c;" horiz-adv-x="719" 
d="M135.5 76.5q-75.5 86.5 -75.5 256.5t75.5 256.5t223.5 86.5q149 0 224.5 -86.5t75.5 -256.5t-75.5 -256.5t-224.5 -86.5q-148 0 -223.5 86.5zM531 124q54 66 54 209q0 142 -54 208.5t-172 66.5q-117 0 -171 -66.5t-54 -208.5q0 -143 54 -209t171 -66q118 0 172 66z
M231 727q-4 15 -4 30q0 37 23.5 59.5t53.5 22.5q24 0 42.5 -9.5t43.5 -27.5q16 -13 27 -19.5t23 -6.5t19 8t7 23q0 5 -2 17h52q2 -14 2 -21q0 -37 -23.5 -60t-62.5 -23q-22 0 -41 10t-41 27q-16 13 -26.5 19t-20.5 6q-12 0 -20 -9.5t-8 -27.5q0 -4 2 -18h-46zM250 952h234
v-53h-234v53z" />
    <glyph glyph-name="uni022D" unicode="&#x22d;" 
d="M112.5 53q-57.5 68 -57.5 195q0 129 58.5 194.5t169.5 65.5q117 0 174 -69.5t57 -190.5q0 -124 -60 -193.5t-169 -69.5q-115 0 -172.5 68zM442 248q0 94 -37 144t-121 50q-157 0 -157 -194q0 -197 157 -197q158 0 158 197zM146 544q-4 15 -4 30q0 37 23.5 59.5t53.5 22.5
q24 0 42.5 -9.5t43.5 -27.5q16 -13 27 -19.5t23 -6.5t19 8t7 23q0 5 -2 17h52q2 -14 2 -21q0 -37 -23.5 -60t-62.5 -23q-22 0 -41 10t-41 27q-16 13 -26.5 19t-20.5 6q-12 0 -20 -9.5t-8 -27.5q0 -4 2 -18h-46zM170 788h234v-53h-234v53z" />
    <glyph glyph-name="uni0230" unicode="&#x230;" horiz-adv-x="719" 
d="M135.5 76.5q-75.5 86.5 -75.5 256.5t75.5 256.5t223.5 86.5q149 0 224.5 -86.5t75.5 -256.5t-75.5 -256.5t-224.5 -86.5q-148 0 -223.5 86.5zM531 124q54 66 54 209q0 142 -54 208.5t-172 66.5q-117 0 -171 -66.5t-54 -208.5q0 -143 54 -209t171 -66q118 0 172 66z
M327 783h79v-79h-79v79zM250 885h234v-53h-234v53z" />
    <glyph glyph-name="uni0231" unicode="&#x231;" 
d="M112.5 53q-57.5 68 -57.5 195q0 129 58.5 194.5t169.5 65.5q117 0 174 -69.5t57 -190.5q0 -124 -60 -193.5t-169 -69.5q-115 0 -172.5 68zM442 248q0 94 -37 144t-121 50q-157 0 -157 -194q0 -197 157 -197q158 0 158 197zM247 643h79v-79h-79v79zM170 773h234v-53h-234
v53z" />
    <glyph glyph-name="uni0232" unicode="&#x232;" horiz-adv-x="598" 
d="M333 306v-306h-72v306l-249 361h87l197 -292l198 292h87zM188 769h234v-53h-234v53z" />
    <glyph glyph-name="uni0233" unicode="&#x233;" horiz-adv-x="540" 
d="M505 499l-214 -548q-31 -80 -72.5 -112t-84.5 -32q-24 0 -47 9v66q20 -9 43 -9q43 0 67 31t45 94l-207 501h82l158 -407l158 407h72zM158 629h234v-53h-234v53z" />
    <glyph glyph-name="uni0237" unicode="&#x237;" horiz-adv-x="251" 
d="M3 -126q42 1 64 12.5t30 32.5t8 56v524h72v-528q0 -83 -43 -123.5t-131 -40.5v67z" />
    <glyph glyph-name="uni0259" unicode="&#x259;" horiz-adv-x="547" 
d="M431 446.5q61 -67.5 61 -197.5q0 -127 -57.5 -192.5t-161.5 -65.5q-114 0 -167 74t-51 197h364q0 90 -42 138t-120 48q-100 0 -171 -43v74q73 35 175 35q109 0 170 -67.5zM373 87.5q34 30.5 43 108.5h-285q5 -70 39.5 -104.5t102.5 -34.5q66 0 100 30.5z" />
    <glyph glyph-name="uni0272" unicode="&#x272;" 
d="M80 459q97 49 211 49q105 0 151.5 -46t46.5 -137v-325h-72v325q0 118 -134 118q-62 0 -131 -20v-423q0 -83 -43 -123.5t-131 -40.5v67q42 1 64 12.5t30 32.5t8 56v455z" />
    <glyph glyph-name="circumflex" unicode="&#x2c6;" horiz-adv-x="402" 
d="M172 684h61l80 -120h-46l-65 70l-65 -70h-46z" />
    <glyph glyph-name="caron" unicode="&#x2c7;" horiz-adv-x="406" 
d="M101 684h56l45 -70l45 70h56l-80 -120h-41z" />
    <glyph glyph-name="uni02C9" unicode="&#x2c9;" horiz-adv-x="403" 
d="M86 629h234v-53h-234v53z" />
    <glyph glyph-name="breve" unicode="&#x2d8;" horiz-adv-x="428" 
d="M129.5 574.5q-36.5 29.5 -48.5 84.5h52q23 -62 83 -62q58 0 83 62h52q-10 -55 -47 -84.5t-88 -29.5q-50 0 -86.5 29.5z" />
    <glyph glyph-name="dotaccent" unicode="&#x2d9;" horiz-adv-x="323" 
d="M125 643h79v-79h-79v79z" />
    <glyph glyph-name="ring" unicode="&#x2da;" horiz-adv-x="409" 
d="M119.5 557q-23.5 22 -23.5 70t23.5 70t77.5 22q53 0 77 -22t24 -70t-24 -70t-77 -22q-54 0 -77.5 22zM239.5 589q11.5 11 11.5 38t-11.5 37.5t-42.5 10.5q-32 0 -43.5 -10.5t-11.5 -37.5t11.5 -38t43.5 -11q31 0 42.5 11z" />
    <glyph glyph-name="ogonek" unicode="&#x2db;" horiz-adv-x="347" 
d="M111.5 -151q-23.5 22 -23.5 61q0 26 19.5 53t53.5 41l78 -4q-42 -20 -67 -42t-25 -43q0 -34 34 -34q28 0 55 27v-63q-32 -18 -60 -18q-41 0 -64.5 22z" />
    <glyph glyph-name="tilde" unicode="&#x2dc;" horiz-adv-x="391" 
d="M54 544q-4 15 -4 30q0 37 23.5 59.5t53.5 22.5q24 0 42.5 -9.5t43.5 -27.5q16 -13 27 -19.5t23 -6.5t19 8t7 23q0 5 -2 17h52q2 -14 2 -21q0 -37 -23.5 -60t-62.5 -23q-22 0 -41 10t-41 27q-16 13 -26.5 19t-20.5 6q-12 0 -20 -9.5t-8 -27.5q0 -4 2 -18h-46z" />
    <glyph glyph-name="hungarumlaut" unicode="&#x2dd;" horiz-adv-x="370" 
d="M117 679h74l-83 -115h-48zM237 679h74l-83 -115h-48z" />
    <glyph glyph-name="gravecomb" unicode="&#x300;" horiz-adv-x="0" 
d="M-173 679h73l57 -115h-47z" />
    <glyph glyph-name="acutecomb" unicode="&#x301;" horiz-adv-x="0" 
d="M-119 679h74l-83 -115h-48z" />
    <glyph glyph-name="uni0302" unicode="&#x302;" horiz-adv-x="0" 
d="M-230 684h61l80 -120h-46l-65 70l-65 -70h-46z" />
    <glyph glyph-name="tildecomb" unicode="&#x303;" horiz-adv-x="0" 
d="M-337 544q-4 15 -4 30q0 37 23.5 59.5t53.5 22.5q24 0 42.5 -9.5t43.5 -27.5q16 -13 27 -19.5t23 -6.5t19 8t7 23q0 5 -2 17h52q2 -14 2 -21q0 -37 -23.5 -60t-62.5 -23q-22 0 -41 10t-41 27q-16 13 -26.5 19t-20.5 6q-12 0 -20 -9.5t-8 -27.5q0 -4 2 -18h-46z" />
    <glyph glyph-name="uni0304" unicode="&#x304;" horiz-adv-x="0" 
d="M-317 629h234v-53h-234v53z" />
    <glyph glyph-name="uni0306" unicode="&#x306;" horiz-adv-x="0" 
d="M-298.5 574.5q-36.5 29.5 -48.5 84.5h52q23 -62 83 -62q58 0 83 62h52q-10 -55 -47 -84.5t-88 -29.5q-50 0 -86.5 29.5z" />
    <glyph glyph-name="uni0307" unicode="&#x307;" horiz-adv-x="0" 
d="M-198 643h79v-79h-79v79z" />
    <glyph glyph-name="uni0308" unicode="&#x308;" horiz-adv-x="0" 
d="M-306 643h79v-79h-79v79zM-158 643h79v-79h-79v79z" />
    <glyph glyph-name="hookabovecomb" unicode="&#x309;" horiz-adv-x="0" 
d="M-142 614q19 1 28.5 8t9.5 16q0 13 -12.5 19.5t-35.5 6.5q-11 0 -27 -2v43q15 3 31 3q38 0 65 -16t27 -52q0 -20 -13 -34.5t-40 -19.5v-24h-33v52z" />
    <glyph glyph-name="uni030A" unicode="&#x30a;" horiz-adv-x="0" 
d="M-289.5 557q-23.5 22 -23.5 70t23.5 70t77.5 22q53 0 77 -22t24 -70t-24 -70t-77 -22q-54 0 -77.5 22zM-169.5 589q11.5 11 11.5 38t-11.5 37.5t-42.5 10.5q-32 0 -43.5 -10.5t-11.5 -37.5t11.5 -38t43.5 -11q31 0 42.5 11z" />
    <glyph glyph-name="uni030B" unicode="&#x30b;" horiz-adv-x="0" 
d="M-253 679h74l-83 -115h-48zM-133 679h74l-83 -115h-48z" />
    <glyph glyph-name="uni030C" unicode="&#x30c;" horiz-adv-x="0" 
d="M-305 684h56l45 -70l45 70h56l-80 -120h-41z" />
    <glyph glyph-name="uni030F" unicode="&#x30f;" horiz-adv-x="0" 
d="M-293 679h73l57 -115h-47zM-159 679h73l57 -115h-47z" />
    <glyph glyph-name="uni0311" unicode="&#x311;" horiz-adv-x="0" 
d="M-124 619.5q37 -29.5 47 -84.5h-52q-25 62 -83 62q-60 0 -83 -62h-52q12 55 48.5 84.5t86.5 29.5q51 0 88 -29.5z" />
    <glyph glyph-name="uni031B" unicode="&#x31b;" horiz-adv-x="0" 
d="M-234 476q28 0 51 20.5t23 47.5v26h54v-28q0 -54 -37 -86t-89 -32z" />
    <glyph glyph-name="dotbelowcmb" unicode="&#x323;" horiz-adv-x="0" 
d="M-129 -50h79v-79h-79v79z" />
    <glyph glyph-name="uni0324" unicode="&#x324;" horiz-adv-x="0" 
d="M-306 -42h79v-79h-79v79zM-158 -42h79v-79h-79v79z" />
    <glyph glyph-name="uni0326" unicode="&#x326;" horiz-adv-x="0" 
d="M-185 -139q24 10 32 34.5t8 55.5h60q0 -65 -30 -100t-70 -44v54z" />
    <glyph glyph-name="uni0327" unicode="&#x327;" horiz-adv-x="0" 
d="M-115 -5h57l-63 -115h-76z" />
    <glyph glyph-name="uni0328" unicode="&#x328;" horiz-adv-x="0" 
d="M-235.5 -151q-23.5 22 -23.5 61q0 26 19.5 53t53.5 41l78 -4q-42 -20 -67 -42t-25 -43q0 -34 34 -34q28 0 55 27v-63q-32 -18 -60 -18q-41 0 -64.5 22z" />
    <glyph glyph-name="uni032E" unicode="&#x32e;" horiz-adv-x="0" 
d="M-298.5 -110.5q-36.5 29.5 -48.5 84.5h52q23 -62 83 -62q58 0 83 62h52q-10 -55 -47 -84.5t-88 -29.5q-50 0 -86.5 29.5z" />
    <glyph glyph-name="uni0331" unicode="&#x331;" horiz-adv-x="0" 
d="M-317 -66h234v-53h-234v53z" />
    <glyph glyph-name="uni0335" unicode="&#x335;" horiz-adv-x="0" 
d="M-304 288h244v-53h-244v53z" />
    <glyph glyph-name="pi" unicode="&#x3c0;" horiz-adv-x="622" 
d="M142 433h-109v66h556v-66h-109v-433h-66v433h-206v-433h-66v433z" />
    <glyph glyph-name="uni1E09" unicode="&#x1e09;" horiz-adv-x="492" 
d="M288 564h-48l57 115h74zM167.5 394q-40.5 -45 -40.5 -144q0 -100 40.5 -144.5t129.5 -44.5q75 0 140 28v-70q-60 -23 -123 -26l-62 -113h-76l81 113q-88 8 -145 66.5t-57 190.5q0 144 67.5 201t166.5 57q75 0 148 -28v-69q-68 28 -140 28q-89 0 -129.5 -45z" />
    <glyph glyph-name="uni1E0F" unicode="&#x1e0f;" 
d="M489 710v-624q0 -51 -64.5 -76t-140.5 -25q-92 0 -160 59.5t-69 211.5q0 118 57.5 184.5t170.5 66.5q26 0 64.5 -8.5t69.5 -20.5v232h72zM417 406q-30 17 -65.5 26t-68.5 9q-78 0 -115 -49.5t-37 -135.5q0 -94 34 -149.5t123 -55.5q53 0 91 12t38 30v313zM179 -66h234
v-53h-234v53z" />
    <glyph glyph-name="uni1E14" unicode="&#x1e14;" horiz-adv-x="581" 
d="M85 667h421v-68h-349v-230h307v-70h-307v-231h349v-68h-421v667zM190 769h234v-53h-234v53zM205 938h74l57 -115h-48z" />
    <glyph glyph-name="uni1E15" unicode="&#x1e15;" horiz-adv-x="547" 
d="M441 434q53 -74 51 -197h-364q0 -90 42 -138t120 -48q100 0 171 43v-74q-73 -35 -175 -35q-109 0 -170 67.5t-61 197.5q0 127 57.5 192.5t161.5 65.5q114 0 167 -74zM174 411.5q-34 -30.5 -43 -108.5h285q-5 70 -39.5 104.5t-102.5 34.5q-66 0 -100 -30.5zM166 629h234
v-53h-234v53zM178 809h73l57 -115h-47z" />
    <glyph glyph-name="uni1E16" unicode="&#x1e16;" horiz-adv-x="581" 
d="M85 667h421v-68h-349v-230h307v-70h-307v-231h349v-68h-421v667zM190 769h234v-53h-234v53zM346 949h74l-83 -115h-48z" />
    <glyph glyph-name="uni1E17" unicode="&#x1e17;" horiz-adv-x="547" 
d="M441 434q53 -74 51 -197h-364q0 -90 42 -138t120 -48q100 0 171 43v-74q-73 -35 -175 -35q-109 0 -170 67.5t-61 197.5q0 127 57.5 192.5t161.5 65.5q114 0 167 -74zM174 411.5q-34 -30.5 -43 -108.5h285q-5 70 -39.5 104.5t-102.5 34.5q-66 0 -100 -30.5zM166 629h234
v-53h-234v53zM314 809h74l-83 -115h-48z" />
    <glyph glyph-name="uni1E1C" unicode="&#x1e1c;" horiz-adv-x="581" 
d="M220.5 724.5q-36.5 29.5 -48.5 84.5h52q23 -62 83 -62q58 0 83 62h52q-10 -55 -47 -84.5t-88 -29.5q-50 0 -86.5 29.5zM157 599v-230h307v-70h-307v-231h349v-68h-159l-60 -110h-76l78 110h-204v667h421v-68h-349z" />
    <glyph glyph-name="uni1E1D" unicode="&#x1e1d;" horiz-adv-x="547" 
d="M196.5 574.5q-36.5 29.5 -48.5 84.5h52q23 -62 83 -62q58 0 83 62h52q-10 -55 -47 -84.5t-88 -29.5q-50 0 -86.5 29.5zM441 434q53 -74 51 -197h-364q0 -90 42 -138t120 -48q100 0 171 43v-74q-48 -23 -113 -31l-59 -109h-76l75 105h-2q-109 0 -170 67.5t-61 197.5
q0 127 57.5 192.5t161.5 65.5q114 0 167 -74zM174 411.5q-34 -30.5 -43 -108.5h285q-5 70 -39.5 104.5t-102.5 34.5q-66 0 -100 -30.5z" />
    <glyph glyph-name="uni1E1E" unicode="&#x1e1e;" horiz-adv-x="536" 
d="M85 667h409v-68h-337v-230h296v-70h-296v-299h-72v667zM242 783h79v-79h-79v79z" />
    <glyph glyph-name="uni1E20" unicode="&#x1e20;" horiz-adv-x="687" 
d="M137.5 77q-77.5 87 -77.5 257t77.5 256t231.5 86q114 0 210 -45v-75q-55 24 -104 38t-98 14q-127 0 -186 -66.5t-59 -207.5q0 -142 59 -208.5t186 -66.5q80 0 153 24v190h-161v70h233v-301q-108 -52 -233 -52q-154 0 -231.5 87zM247 769h234v-53h-234v53z" />
    <glyph glyph-name="uni1E21" unicode="&#x1e21;" 
d="M433.5 476.5q55.5 -30.5 55.5 -93.5v-404q0 -74 -48 -125.5t-169 -51.5q-34 0 -63.5 5.5t-51 11t-27.5 6.5v68q39 -11 68.5 -17t65.5 -6q91 0 122 30t31 77v37q-31 -12 -69.5 -20.5t-64.5 -8.5q-113 0 -170.5 66.5t-57.5 184.5q1 153 71 212t172 59q80 0 135.5 -30.5z
M168 100.5q37 -49.5 115 -49.5q33 0 68.5 9t65.5 26v287q0 39 -30.5 53.5t-82.5 14.5q-100 0 -136.5 -55t-36.5 -150q0 -86 37 -135.5zM194 629h234v-53h-234v53z" />
    <glyph glyph-name="uni1E2A" unicode="&#x1e2a;" horiz-adv-x="669" 
d="M85 667h72v-300h355v300h72v-667h-72v299h-355v-299h-72v667zM248.5 -111.5q-36.5 29.5 -48.5 84.5h52q23 -62 83 -62q58 0 83 62h52q-10 -55 -47 -84.5t-88 -29.5q-50 0 -86.5 29.5z" />
    <glyph glyph-name="uni1E2B" unicode="&#x1e2b;" horiz-adv-x="575" 
d="M446 455.5q49 -52.5 49 -159.5v-296h-72v296q0 70 -32.5 108t-95.5 38q-70 0 -143 -40v-402h-72v720h72v-254q37 20 76.5 31t74.5 11q94 0 143 -52.5zM197.5 -110.5q-36.5 29.5 -48.5 84.5h52q23 -62 83 -62q58 0 83 62h52q-10 -55 -47 -84.5t-88 -29.5q-50 0 -86.5 29.5
z" />
    <glyph glyph-name="uni1E2E" unicode="&#x1e2e;" horiz-adv-x="242" 
d="M85 667h72v-667h-72v667zM7 805h79v-79h-79v79zM155 805h79v-79h-79v79zM160 1015h74l-83 -115h-48z" />
    <glyph glyph-name="uni1E2F" unicode="&#x1e2f;" horiz-adv-x="232" 
d="M80 499h72v-499h-72v499zM2 643h79v-79h-79v79zM150 643h79v-79h-79v79zM147 823h74l-83 -115h-48z" />
    <glyph glyph-name="uni1E36" unicode="&#x1e36;" horiz-adv-x="523" 
d="M85 667h72v-597h341v-70h-413v667zM229 -50h79v-79h-79v79z" />
    <glyph glyph-name="uni1E37" unicode="&#x1e37;" horiz-adv-x="232" 
d="M80 0v689h72v-689h-72zM76 -50h79v-79h-79v79z" />
    <glyph glyph-name="uni1E3A" unicode="&#x1e3a;" horiz-adv-x="523" 
d="M85 667h72v-597h341v-70h-413v667zM152 -66h234v-53h-234v53z" />
    <glyph glyph-name="uni1E3B" unicode="&#x1e3b;" horiz-adv-x="232" 
d="M80 0v689h72v-689h-72zM-1 -66h234v-53h-234v53z" />
    <glyph glyph-name="uni1E42" unicode="&#x1e42;" horiz-adv-x="785" 
d="M700 667v-667h-72v550l-243 -341l-228 339v-548h-72v667h78l226 -347l233 347h78zM353 -50h79v-79h-79v79z" />
    <glyph glyph-name="uni1E43" unicode="&#x1e43;" horiz-adv-x="883" 
d="M756.5 462q46.5 -46 46.5 -137v-325h-72v325q0 118 -134 118q-64 0 -121 -34q13 -35 13 -84v-325h-72v325q0 118 -134 118q-62 0 -131 -20v-423h-72v459q97 49 211 49q97 0 146 -41q75 41 168 41q105 0 151.5 -46zM402 -50h79v-79h-79v79z" />
    <glyph glyph-name="uni1E45" unicode="&#x1e45;" 
d="M291 508q105 0 151.5 -46t46.5 -137v-325h-72v325q0 118 -134 118q-62 0 -131 -20v-423h-72v459q97 49 211 49zM246 643h79v-79h-79v79z" />
    <glyph glyph-name="uni1E46" unicode="&#x1e46;" horiz-adv-x="722" 
d="M637 667v-667h-81l-399 562v-562h-72v667h82l398 -562v562h72zM322 -50h79v-79h-79v79z" />
    <glyph glyph-name="uni1E47" unicode="&#x1e47;" 
d="M291 508q105 0 151.5 -46t46.5 -137v-325h-72v325q0 118 -134 118q-62 0 -131 -20v-423h-72v459q97 49 211 49zM246 -50h79v-79h-79v79z" />
    <glyph glyph-name="uni1E48" unicode="&#x1e48;" horiz-adv-x="722" 
d="M637 667v-667h-81l-399 562v-562h-72v667h82l398 -562v562h72zM245 -66h234v-53h-234v53z" />
    <glyph glyph-name="uni1E49" unicode="&#x1e49;" 
d="M291 508q105 0 151.5 -46t46.5 -137v-325h-72v325q0 118 -134 118q-62 0 -131 -20v-423h-72v459q97 49 211 49zM169 -66h234v-53h-234v53z" />
    <glyph glyph-name="uni1E4C" unicode="&#x1e4c;" horiz-adv-x="719" 
d="M135.5 76.5q-75.5 86.5 -75.5 256.5t75.5 256.5t223.5 86.5q149 0 224.5 -86.5t75.5 -256.5t-75.5 -256.5t-224.5 -86.5q-148 0 -223.5 86.5zM531 124q54 66 54 209q0 142 -54 208.5t-172 66.5q-117 0 -171 -66.5t-54 -208.5q0 -143 54 -209t171 -66q118 0 172 66z
M231 727q-4 15 -4 30q0 37 23.5 59.5t53.5 22.5q24 0 42.5 -9.5t43.5 -27.5q16 -13 27 -19.5t23 -6.5t19 8t7 23q0 5 -2 17h52q2 -14 2 -21q0 -37 -23.5 -60t-62.5 -23q-22 0 -41 10t-41 27q-16 13 -26.5 19t-20.5 6q-12 0 -20 -9.5t-8 -27.5q0 -4 2 -18h-46zM406 1030h74
l-83 -115h-48z" />
    <glyph glyph-name="uni1E4D" unicode="&#x1e4d;" 
d="M112.5 53q-57.5 68 -57.5 195q0 129 58.5 194.5t169.5 65.5q117 0 174 -69.5t57 -190.5q0 -124 -60 -193.5t-169 -69.5q-115 0 -172.5 68zM442 248q0 94 -37 144t-121 50q-157 0 -157 -194q0 -197 157 -197q158 0 158 197zM146 544q-4 15 -4 30q0 37 23.5 59.5t53.5 22.5
q24 0 42.5 -9.5t43.5 -27.5q16 -13 27 -19.5t23 -6.5t19 8t7 23q0 5 -2 17h52q2 -14 2 -21q0 -37 -23.5 -60t-62.5 -23q-22 0 -41 10t-41 27q-16 13 -26.5 19t-20.5 6q-12 0 -20 -9.5t-8 -27.5q0 -4 2 -18h-46zM318 838h74l-83 -115h-48z" />
    <glyph glyph-name="uni1E4E" unicode="&#x1e4e;" horiz-adv-x="719" 
d="M135.5 76.5q-75.5 86.5 -75.5 256.5t75.5 256.5t223.5 86.5q149 0 224.5 -86.5t75.5 -256.5t-75.5 -256.5t-224.5 -86.5q-148 0 -223.5 86.5zM531 124q54 66 54 209q0 142 -54 208.5t-172 66.5q-117 0 -171 -66.5t-54 -208.5q0 -143 54 -209t171 -66q118 0 172 66z
M231 727q-4 15 -4 30q0 37 23.5 59.5t53.5 22.5q24 0 42.5 -9.5t43.5 -27.5q16 -13 27 -19.5t23 -6.5t19 8t7 23q0 5 -2 17h52q2 -14 2 -21q0 -37 -23.5 -60t-62.5 -23q-22 0 -41 10t-41 27q-16 13 -26.5 19t-20.5 6q-12 0 -20 -9.5t-8 -27.5q0 -4 2 -18h-46zM253 988h79
v-79h-79v79zM401 988h79v-79h-79v79z" />
    <glyph glyph-name="uni1E4F" unicode="&#x1e4f;" 
d="M112.5 53q-57.5 68 -57.5 195q0 129 58.5 194.5t169.5 65.5q117 0 174 -69.5t57 -190.5q0 -124 -60 -193.5t-169 -69.5q-115 0 -172.5 68zM442 248q0 94 -37 144t-121 50q-157 0 -157 -194q0 -197 157 -197q158 0 158 197zM146 544q-4 15 -4 30q0 37 23.5 59.5t53.5 22.5
q24 0 42.5 -9.5t43.5 -27.5q16 -13 27 -19.5t23 -6.5t19 8t7 23q0 5 -2 17h52q2 -14 2 -21q0 -37 -23.5 -60t-62.5 -23q-22 0 -41 10t-41 27q-16 13 -26.5 19t-20.5 6q-12 0 -20 -9.5t-8 -27.5q0 -4 2 -18h-46zM173 802h79v-79h-79v79zM321 802h79v-79h-79v79z" />
    <glyph glyph-name="uni1E50" unicode="&#x1e50;" horiz-adv-x="719" 
d="M135.5 76.5q-75.5 86.5 -75.5 256.5t75.5 256.5t223.5 86.5q149 0 224.5 -86.5t75.5 -256.5t-75.5 -256.5t-224.5 -86.5q-148 0 -223.5 86.5zM531 124q54 66 54 209q0 142 -54 208.5t-172 66.5q-117 0 -171 -66.5t-54 -208.5q0 -143 54 -209t171 -66q118 0 172 66z
M250 769h234v-53h-234v53zM265 938h74l57 -115h-48z" />
    <glyph glyph-name="uni1E51" unicode="&#x1e51;" 
d="M112.5 53q-57.5 68 -57.5 195q0 129 58.5 194.5t169.5 65.5q117 0 174 -69.5t57 -190.5q0 -124 -60 -193.5t-169 -69.5q-115 0 -172.5 68zM442 248q0 94 -37 144t-121 50q-157 0 -157 -194q0 -197 157 -197q158 0 158 197zM170 629h234v-53h-234v53zM182 809h73l57 -115
h-47z" />
    <glyph glyph-name="uni1E52" unicode="&#x1e52;" horiz-adv-x="719" 
d="M135.5 76.5q-75.5 86.5 -75.5 256.5t75.5 256.5t223.5 86.5q149 0 224.5 -86.5t75.5 -256.5t-75.5 -256.5t-224.5 -86.5q-148 0 -223.5 86.5zM531 124q54 66 54 209q0 142 -54 208.5t-172 66.5q-117 0 -171 -66.5t-54 -208.5q0 -143 54 -209t171 -66q118 0 172 66z
M250 769h234v-53h-234v53zM406 949h74l-83 -115h-48z" />
    <glyph glyph-name="uni1E53" unicode="&#x1e53;" 
d="M112.5 53q-57.5 68 -57.5 195q0 129 58.5 194.5t169.5 65.5q117 0 174 -69.5t57 -190.5q0 -124 -60 -193.5t-169 -69.5q-115 0 -172.5 68zM442 248q0 94 -37 144t-121 50q-157 0 -157 -194q0 -197 157 -197q158 0 158 197zM170 629h234v-53h-234v53zM318 809h74l-83 -115
h-48z" />
    <glyph glyph-name="uni1E5E" unicode="&#x1e5e;" horiz-adv-x="631" 
d="M501 0l-174 269h-170v-269h-72v667h274q97 0 147 -49t50 -145q0 -77 -41 -130t-110 -66l181 -277h-85zM157 337h169q82 0 120 33t38 98q0 64 -30 97.5t-103 33.5h-194v-262zM199 -66h234v-53h-234v53z" />
    <glyph glyph-name="uni1E5F" unicode="&#x1e5f;" horiz-adv-x="377" 
d="M80 459q38 16 100.5 32.5t129.5 16.5q10 0 32 -6v-64q-24 3 -48 3q-33 0 -61 -4t-81 -13v-424h-72v459zM-19 -66h234v-53h-234v53z" />
    <glyph glyph-name="uni1E60" unicode="&#x1e60;" horiz-adv-x="555" 
d="M164 3q-41 13 -99 44v78q36 -30 90.5 -49.5t121.5 -19.5q73 0 109 31t36 84q0 39 -21 64.5t-50 40t-87 36.5q-62 21 -98.5 40t-62.5 56t-26 98q0 41 20.5 80t66 65t117.5 26q53 0 86.5 -10t88.5 -37v-74q-7 4 -37.5 21.5t-63 25.5t-70.5 8q-69 0 -102 -28.5t-33 -71.5
q0 -39 17.5 -63t47 -39t83.5 -33q62 -21 101.5 -41.5t67.5 -58.5t28 -97q0 -79 -52.5 -134t-168.5 -55q-69 0 -110 13zM239 783h79v-79h-79v79z" />
    <glyph glyph-name="uni1E61" unicode="&#x1e61;" horiz-adv-x="456" 
d="M134 -5q-36 10 -79 32v76q51 -29 83.5 -40.5t77.5 -11.5q50 0 81.5 22t31.5 57q0 31 -19 46.5t-60 31.5l-26 11q-57 16 -88.5 29t-55 41t-23.5 76t25 80t65 47.5t84 15.5q40 0 67.5 -9t75.5 -30v-72q-50 25 -76.5 35t-62.5 10q-44 0 -75 -17.5t-31 -49.5
q0 -26 15.5 -42.5t39 -26t63.5 -20.5q50 -16 79.5 -29t52 -41.5t22.5 -76.5q0 -51 -26 -85.5t-67.5 -51.5t-86.5 -17q-51 0 -87 10zM193 643h79v-79h-79v79z" />
    <glyph glyph-name="uni1E62" unicode="&#x1e62;" horiz-adv-x="555" 
d="M164 3q-41 13 -99 44v78q36 -30 90.5 -49.5t121.5 -19.5q73 0 109 31t36 84q0 39 -21 64.5t-50 40t-87 36.5q-62 21 -98.5 40t-62.5 56t-26 98q0 41 20.5 80t66 65t117.5 26q53 0 86.5 -10t88.5 -37v-74q-7 4 -37.5 21.5t-63 25.5t-70.5 8q-69 0 -102 -28.5t-33 -71.5
q0 -39 17.5 -63t47 -39t83.5 -33q62 -21 101.5 -41.5t67.5 -58.5t28 -97q0 -79 -52.5 -134t-168.5 -55q-69 0 -110 13zM239 -50h79v-79h-79v79z" />
    <glyph glyph-name="uni1E63" unicode="&#x1e63;" horiz-adv-x="456" 
d="M134 -5q-36 10 -79 32v76q51 -29 83.5 -40.5t77.5 -11.5q50 0 81.5 22t31.5 57q0 31 -19 46.5t-60 31.5l-26 11q-57 16 -88.5 29t-55 41t-23.5 76t25 80t65 47.5t84 15.5q40 0 67.5 -9t75.5 -30v-72q-50 25 -76.5 35t-62.5 10q-44 0 -75 -17.5t-31 -49.5
q0 -26 15.5 -42.5t39 -26t63.5 -20.5q50 -16 79.5 -29t52 -41.5t22.5 -76.5q0 -51 -26 -85.5t-67.5 -51.5t-86.5 -17q-51 0 -87 10zM163 -50h79v-79h-79v79z" />
    <glyph glyph-name="uni1E64" unicode="&#x1e64;" horiz-adv-x="555" 
d="M164 3q-41 13 -99 44v78q36 -30 90.5 -49.5t121.5 -19.5q73 0 109 31t36 84q0 39 -21 64.5t-50 40t-87 36.5q-62 21 -98.5 40t-62.5 56t-26 98q0 41 20.5 80t66 65t117.5 26q53 0 86.5 -10t88.5 -37v-74q-7 4 -37.5 21.5t-63 25.5t-70.5 8q-69 0 -102 -28.5t-33 -71.5
q0 -39 17.5 -63t47 -39t83.5 -33q62 -21 101.5 -41.5t67.5 -58.5t28 -97q0 -79 -52.5 -134t-168.5 -55q-69 0 -110 13zM348 847h74l-83 -115h-48zM196 814h79v-79h-79v79z" />
    <glyph glyph-name="uni1E65" unicode="&#x1e65;" horiz-adv-x="456" 
d="M134 -5q-36 10 -79 32v76q51 -29 83.5 -40.5t77.5 -11.5q50 0 81.5 22t31.5 57q0 31 -19 46.5t-60 31.5l-26 11q-57 16 -88.5 29t-55 41t-23.5 76t25 80t65 47.5t84 15.5q40 0 67.5 -9t75.5 -30v-72q-50 25 -76.5 35t-62.5 10q-44 0 -75 -17.5t-31 -49.5
q0 -26 15.5 -42.5t39 -26t63.5 -20.5q50 -16 79.5 -29t52 -41.5t22.5 -76.5q0 -51 -26 -85.5t-67.5 -51.5t-86.5 -17q-51 0 -87 10zM264 679h74l-83 -115h-48zM233 823h79v-79h-79v79z" />
    <glyph glyph-name="uni1E66" unicode="&#x1e66;" horiz-adv-x="555" 
d="M164 3q-41 13 -99 44v78q36 -30 90.5 -49.5t121.5 -19.5q73 0 109 31t36 84q0 39 -21 64.5t-50 40t-87 36.5q-62 21 -98.5 40t-62.5 56t-26 98q0 41 20.5 80t66 65t117.5 26q53 0 86.5 -10t88.5 -37v-74q-7 4 -37.5 21.5t-63 25.5t-70.5 8q-69 0 -102 -28.5t-33 -71.5
q0 -39 17.5 -63t47 -39t83.5 -33q62 -21 101.5 -41.5t67.5 -58.5t28 -97q0 -79 -52.5 -134t-168.5 -55q-69 0 -110 13zM178 824h56l45 -70l45 70h56l-80 -120h-41zM239 940h79v-79h-79v79z" />
    <glyph glyph-name="uni1E67" unicode="&#x1e67;" horiz-adv-x="456" 
d="M134 -5q-36 10 -79 32v76q51 -29 83.5 -40.5t77.5 -11.5q50 0 81.5 22t31.5 57q0 31 -19 46.5t-60 31.5l-26 11q-57 16 -88.5 29t-55 41t-23.5 76t25 80t65 47.5t84 15.5q40 0 67.5 -9t75.5 -30v-72q-50 25 -76.5 35t-62.5 10q-44 0 -75 -17.5t-31 -49.5
q0 -26 15.5 -42.5t39 -26t63.5 -20.5q50 -16 79.5 -29t52 -41.5t22.5 -76.5q0 -51 -26 -85.5t-67.5 -51.5t-86.5 -17q-51 0 -87 10zM132 684h56l45 -70l45 70h56l-80 -120h-41zM193 828h79v-79h-79v79z" />
    <glyph glyph-name="uni1E68" unicode="&#x1e68;" horiz-adv-x="555" 
d="M164 3q-41 13 -99 44v78q36 -30 90.5 -49.5t121.5 -19.5q73 0 109 31t36 84q0 39 -21 64.5t-50 40t-87 36.5q-62 21 -98.5 40t-62.5 56t-26 98q0 41 20.5 80t66 65t117.5 26q53 0 86.5 -10t88.5 -37v-74q-7 4 -37.5 21.5t-63 25.5t-70.5 8q-69 0 -102 -28.5t-33 -71.5
q0 -39 17.5 -63t47 -39t83.5 -33q62 -21 101.5 -41.5t67.5 -58.5t28 -97q0 -79 -52.5 -134t-168.5 -55q-69 0 -110 13zM239 -50h79v-79h-79v79zM239 783h79v-79h-79v79z" />
    <glyph glyph-name="uni1E69" unicode="&#x1e69;" horiz-adv-x="456" 
d="M134 -5q-36 10 -79 32v76q51 -29 83.5 -40.5t77.5 -11.5q50 0 81.5 22t31.5 57q0 31 -19 46.5t-60 31.5l-26 11q-57 16 -88.5 29t-55 41t-23.5 76t25 80t65 47.5t84 15.5q40 0 67.5 -9t75.5 -30v-72q-50 25 -76.5 35t-62.5 10q-44 0 -75 -17.5t-31 -49.5
q0 -26 15.5 -42.5t39 -26t63.5 -20.5q50 -16 79.5 -29t52 -41.5t22.5 -76.5q0 -51 -26 -85.5t-67.5 -51.5t-86.5 -17q-51 0 -87 10zM163 -50h79v-79h-79v79zM193 643h79v-79h-79v79z" />
    <glyph glyph-name="uni1E6D" unicode="&#x1e6d;" horiz-adv-x="363" 
d="M147 25.5q-35 33.5 -35 95.5v312h-87v66h87v141h72v-141h129v-66h-129v-289q0 -44 14 -64t52 -20q37 0 63 12v-68q-14 -5 -35.5 -8.5t-40.5 -3.5q-55 0 -90 33.5zM134 -50h79v-79h-79v79z" />
    <glyph glyph-name="uni1E6E" unicode="&#x1e6e;" horiz-adv-x="583" 
d="M256 599h-236v68h543v-68h-235v-599h-72v599zM175 -66h234v-53h-234v53z" />
    <glyph glyph-name="uni1E6F" unicode="&#x1e6f;" horiz-adv-x="363" 
d="M147 25.5q-35 33.5 -35 95.5v312h-87v66h87v141h72v-141h129v-66h-129v-289q0 -44 14 -64t52 -20q37 0 63 12v-68q-14 -5 -35.5 -8.5t-40.5 -3.5q-55 0 -90 33.5zM57 -66h234v-53h-234v53z" />
    <glyph glyph-name="uni1E78" unicode="&#x1e78;" horiz-adv-x="692" 
d="M153.5 63q-68.5 73 -68.5 209v395h72v-399q0 -210 189 -210q191 0 191 210v399h70v-395q0 -136 -68.5 -209t-192.5 -73t-192.5 73zM210 727q-4 15 -4 30q0 37 23.5 59.5t53.5 22.5q24 0 42.5 -9.5t43.5 -27.5q16 -13 27 -19.5t23 -6.5t19 8t7 23q0 5 -2 17h52
q2 -14 2 -21q0 -37 -23.5 -60t-62.5 -23q-22 0 -41 10t-41 27q-16 13 -26.5 19t-20.5 6q-12 0 -20 -9.5t-8 -27.5q0 -4 2 -18h-46zM385 1030h74l-83 -115h-48z" />
    <glyph glyph-name="uni1E79" unicode="&#x1e79;" horiz-adv-x="578" 
d="M134.5 36.5q-54.5 51.5 -54.5 146.5v316h72v-300q0 -76 33 -111.5t104 -35.5q70 0 103.5 35.5t33.5 111.5v300h72v-316q0 -95 -54.5 -146.5t-154.5 -51.5t-154.5 51.5zM148 544q-4 15 -4 30q0 37 23.5 59.5t53.5 22.5q24 0 42.5 -9.5t43.5 -27.5q16 -13 27 -19.5t23 -6.5
t19 8t7 23q0 5 -2 17h52q2 -14 2 -21q0 -37 -23.5 -60t-62.5 -23q-22 0 -41 10t-41 27q-16 13 -26.5 19t-20.5 6q-12 0 -20 -9.5t-8 -27.5q0 -4 2 -18h-46zM320 838h74l-83 -115h-48z" />
    <glyph glyph-name="uni1E7A" unicode="&#x1e7a;" horiz-adv-x="692" 
d="M153.5 63q-68.5 73 -68.5 209v395h72v-399q0 -210 189 -210q191 0 191 210v399h70v-395q0 -136 -68.5 -209t-192.5 -73t-192.5 73zM229 769h234v-53h-234v53zM232 907h79v-79h-79v79zM380 907h79v-79h-79v79z" />
    <glyph glyph-name="uni1E7B" unicode="&#x1e7b;" horiz-adv-x="578" 
d="M134.5 36.5q-54.5 51.5 -54.5 146.5v316h72v-300q0 -76 33 -111.5t104 -35.5q70 0 103.5 35.5t33.5 111.5v300h72v-316q0 -95 -54.5 -146.5t-154.5 -51.5t-154.5 51.5zM172 629h234v-53h-234v53zM175 773h79v-79h-79v79zM323 773h79v-79h-79v79z" />
    <glyph glyph-name="Wgrave" unicode="&#x1e80;" horiz-adv-x="976" 
d="M951 667l-215 -667h-73l-175 553l-175 -553h-74l-214 667h76l180 -569l171 569h72l174 -569l177 569h76zM387 836h74l57 -115h-48z" />
    <glyph glyph-name="wgrave" unicode="&#x1e81;" horiz-adv-x="796" 
d="M761 499l-166 -499h-73l-125 414l-123 -414h-73l-166 499h76l130 -417l122 417h69l126 -418l132 418h71zM294 679h73l57 -115h-47z" />
    <glyph glyph-name="Wacute" unicode="&#x1e82;" horiz-adv-x="976" 
d="M951 667l-215 -667h-73l-175 553l-175 -553h-74l-214 667h76l180 -569l171 569h72l174 -569l177 569h76zM528 847h74l-83 -115h-48z" />
    <glyph glyph-name="wacute" unicode="&#x1e83;" horiz-adv-x="796" 
d="M761 499l-166 -499h-73l-125 414l-123 -414h-73l-166 499h76l130 -417l122 417h69l126 -418l132 418h71zM430 679h74l-83 -115h-48z" />
    <glyph glyph-name="Wdieresis" unicode="&#x1e84;" horiz-adv-x="976" 
d="M951 667l-215 -667h-73l-175 553l-175 -553h-74l-214 667h76l180 -569l171 569h72l174 -569l177 569h76zM375 805h79v-79h-79v79zM523 805h79v-79h-79v79z" />
    <glyph glyph-name="wdieresis" unicode="&#x1e85;" horiz-adv-x="796" 
d="M761 499l-166 -499h-73l-125 414l-123 -414h-73l-166 499h76l130 -417l122 417h69l126 -418l132 418h71zM285 643h79v-79h-79v79zM433 643h79v-79h-79v79z" />
    <glyph glyph-name="uni1E8E" unicode="&#x1e8e;" horiz-adv-x="598" 
d="M333 306v-306h-72v306l-249 361h87l197 -292l198 292h87zM265 783h79v-79h-79v79z" />
    <glyph glyph-name="uni1E8F" unicode="&#x1e8f;" horiz-adv-x="540" 
d="M505 499l-214 -548q-31 -80 -72.5 -112t-84.5 -32q-24 0 -47 9v66q20 -9 43 -9q43 0 67 31t45 94l-207 501h82l158 -407l158 407h72zM235 643h79v-79h-79v79z" />
    <glyph glyph-name="uni1E97" unicode="&#x1e97;" horiz-adv-x="363" 
d="M147 25.5q-35 33.5 -35 95.5v312h-87v66h87v141h72v-141h129v-66h-129v-289q0 -44 14 -64t52 -20q37 0 63 12v-68q-14 -5 -35.5 -8.5t-40.5 -3.5q-55 0 -90 33.5zM30 783h79v-79h-79v79zM178 783h79v-79h-79v79z" />
    <glyph glyph-name="uni1E9E" unicode="&#x1e9e;" horiz-adv-x="706" 
d="M596.5 350q49.5 -55 49.5 -141q0 -91 -52.5 -155t-168.5 -64q-78 0 -159 57v78q27 -30 69 -49.5t93 -19.5q73 0 109 39t36 106q0 83 -53.5 128.5t-161.5 66.5v54l162 77q-22 40 -70 66t-120 26q-84 0 -128.5 -43t-44.5 -115v-461h-72v454q0 63 27 113.5t81 80t133 29.5
q80 0 129.5 -18.5t78.5 -51t58 -87.5v-21l-135 -62q90 -32 139.5 -87z" />
    <glyph glyph-name="uni1EA0" unicode="&#x1ea0;" horiz-adv-x="643" 
d="M466 208h-288l-80 -208h-78l266 667h72l265 -667h-77zM439 277l-117 305l-117 -305h234zM283 -50h79v-79h-79v79z" />
    <glyph glyph-name="uni1EA1" unicode="&#x1ea1;" horiz-adv-x="534" 
d="M425.5 467q48.5 -41 48.5 -119v-242q0 -72 -59 -96.5t-163 -24.5q-79 0 -135.5 35t-56.5 117q0 89 49 129.5t135 40.5q97 0 157 -35v59q0 112 -131 112q-43 0 -87 -12t-74 -36v72q30 19 81.5 30t102.5 11q84 0 132.5 -41zM370 59.5q31 10.5 31 42.5v112q-27 13 -63 20.5
t-75 7.5q-63 0 -97 -24t-34 -70q0 -52 40 -75.5t97 -23.5q70 0 101 10.5zM241 -50h79v-79h-79v79z" />
    <glyph glyph-name="uni1EA2" unicode="&#x1ea2;" horiz-adv-x="643" 
d="M466 208h-288l-80 -208h-78l266 667h72l265 -667h-77zM439 277l-117 305l-117 -305h234zM298 754q19 1 28.5 8t9.5 16q0 13 -12.5 19.5t-35.5 6.5q-11 0 -27 -2v43q15 3 31 3q38 0 65 -16t27 -52q0 -20 -13 -34.5t-40 -19.5v-24h-33v52z" />
    <glyph glyph-name="uni1EA3" unicode="&#x1ea3;" horiz-adv-x="554" 
d="M425.5 467q48.5 -41 48.5 -119v-242q0 -72 -59 -96.5t-163 -24.5q-79 0 -135.5 35t-56.5 117q0 89 49 129.5t135 40.5q97 0 157 -35v59q0 112 -131 112q-43 0 -87 -12t-74 -36v72q30 19 81.5 30t102.5 11q84 0 132.5 -41zM370 59.5q31 10.5 31 42.5v112q-27 13 -63 20.5
t-75 7.5q-63 0 -97 -24t-34 -70q0 -52 40 -75.5t97 -23.5q70 0 101 10.5zM266 614q19 1 28.5 8t9.5 16q0 13 -12.5 19.5t-35.5 6.5q-11 0 -27 -2v43q15 3 31 3q38 0 65 -16t27 -52q0 -20 -13 -34.5t-40 -19.5v-24h-33v52z" />
    <glyph glyph-name="uni1EA4" unicode="&#x1ea4;" horiz-adv-x="643" 
d="M466 208h-288l-80 -208h-78l266 667h72l265 -667h-77zM439 277l-117 305l-117 -305h234zM296 852h61l80 -120h-46l-65 70l-65 -70h-46zM466 919h74l-83 -115h-48z" />
    <glyph glyph-name="uni1EA5" unicode="&#x1ea5;" horiz-adv-x="554" 
d="M425.5 467q48.5 -41 48.5 -119v-242q0 -72 -59 -96.5t-163 -24.5q-79 0 -135.5 35t-56.5 117q0 89 49 129.5t135 40.5q97 0 157 -35v59q0 112 -131 112q-43 0 -87 -12t-74 -36v72q30 19 81.5 30t102.5 11q84 0 132.5 -41zM370 59.5q31 10.5 31 42.5v112q-27 13 -63 20.5
t-75 7.5q-63 0 -97 -24t-34 -70q0 -52 40 -75.5t97 -23.5q70 0 101 10.5zM264 684h61l80 -120h-46l-65 70l-65 -70h-46zM434 751h74l-83 -115h-48z" />
    <glyph glyph-name="uni1EA6" unicode="&#x1ea6;" horiz-adv-x="643" 
d="M466 208h-288l-80 -208h-78l266 667h72l265 -667h-77zM439 277l-117 305l-117 -305h234zM293 852h61l80 -120h-46l-65 70l-65 -70h-46zM84 913h74l57 -115h-48z" />
    <glyph glyph-name="uni1EA7" unicode="&#x1ea7;" horiz-adv-x="554" 
d="M425.5 467q48.5 -41 48.5 -119v-242q0 -72 -59 -96.5t-163 -24.5q-79 0 -135.5 35t-56.5 117q0 89 49 129.5t135 40.5q97 0 157 -35v59q0 112 -131 112q-43 0 -87 -12t-74 -36v72q30 19 81.5 30t102.5 11q84 0 132.5 -41zM370 59.5q31 10.5 31 42.5v112q-27 13 -63 20.5
t-75 7.5q-63 0 -97 -24t-34 -70q0 -52 40 -75.5t97 -23.5q70 0 101 10.5zM261 684h61l80 -120h-46l-65 70l-65 -70h-46zM52 745h74l57 -115h-48z" />
    <glyph glyph-name="uni1EA8" unicode="&#x1ea8;" horiz-adv-x="643" 
d="M466 208h-288l-80 -208h-78l266 667h72l265 -667h-77zM439 277l-117 305l-117 -305h234zM287 847h61l80 -120h-46l-65 70l-65 -70h-46zM433 831q19 1 28.5 8t9.5 16q0 13 -12.5 19.5t-35.5 6.5q-11 0 -27 -2v43q15 3 31 3q38 0 65 -16t27 -52q0 -20 -13 -34.5t-40 -19.5
v-24h-33v52z" />
    <glyph glyph-name="uni1EA9" unicode="&#x1ea9;" horiz-adv-x="554" 
d="M425.5 467q48.5 -41 48.5 -119v-242q0 -72 -59 -96.5t-163 -24.5q-79 0 -135.5 35t-56.5 117q0 89 49 129.5t135 40.5q97 0 157 -35v59q0 112 -131 112q-43 0 -87 -12t-74 -36v72q30 19 81.5 30t102.5 11q84 0 132.5 -41zM370 59.5q31 10.5 31 42.5v112q-27 13 -63 20.5
t-75 7.5q-63 0 -97 -24t-34 -70q0 -52 40 -75.5t97 -23.5q70 0 101 10.5zM255 679h61l80 -120h-46l-65 70l-65 -70h-46zM401 663q19 1 28.5 8t9.5 16q0 13 -12.5 19.5t-35.5 6.5q-11 0 -27 -2v43q15 3 31 3q38 0 65 -16t27 -52q0 -20 -13 -34.5t-40 -19.5v-24h-33v52z" />
    <glyph glyph-name="uni1EAA" unicode="&#x1eaa;" horiz-adv-x="643" 
d="M466 208h-288l-80 -208h-78l266 667h72l265 -667h-77zM439 277l-117 305l-117 -305h234zM293 832h61l80 -120h-46l-65 70l-65 -70h-46zM181 867q-4 15 -4 30q0 37 23.5 59.5t53.5 22.5q24 0 42.5 -9.5t43.5 -27.5q16 -13 27 -19.5t23 -6.5t19 8t7 23q0 5 -2 17h52
q2 -14 2 -21q0 -37 -23.5 -60t-62.5 -23q-22 0 -41 10t-41 27q-16 13 -26.5 19t-20.5 6q-12 0 -20 -9.5t-8 -27.5q0 -4 2 -18h-46z" />
    <glyph glyph-name="uni1EAB" unicode="&#x1eab;" horiz-adv-x="554" 
d="M425.5 467q48.5 -41 48.5 -119v-242q0 -72 -59 -96.5t-163 -24.5q-79 0 -135.5 35t-56.5 117q0 89 49 129.5t135 40.5q97 0 157 -35v59q0 112 -131 112q-43 0 -87 -12t-74 -36v72q30 19 81.5 30t102.5 11q84 0 132.5 -41zM370 59.5q31 10.5 31 42.5v112q-27 13 -63 20.5
t-75 7.5q-63 0 -97 -24t-34 -70q0 -52 40 -75.5t97 -23.5q70 0 101 10.5zM261 664h61l80 -120h-46l-65 70l-65 -70h-46zM149 699q-4 15 -4 30q0 37 23.5 59.5t53.5 22.5q24 0 42.5 -9.5t43.5 -27.5q16 -13 27 -19.5t23 -6.5t19 8t7 23q0 5 -2 17h52q2 -14 2 -21
q0 -37 -23.5 -60t-62.5 -23q-22 0 -41 10t-41 27q-16 13 -26.5 19t-20.5 6q-12 0 -20 -9.5t-8 -27.5q0 -4 2 -18h-46z" />
    <glyph glyph-name="uni1EAC" unicode="&#x1eac;" horiz-adv-x="643" 
d="M466 208h-288l-80 -208h-78l266 667h72l265 -667h-77zM439 277l-117 305l-117 -305h234zM283 -50h79v-79h-79v79zM293 839h61l80 -120h-46l-65 70l-65 -70h-46z" />
    <glyph glyph-name="uni1EAD" unicode="&#x1ead;" horiz-adv-x="534" 
d="M425.5 467q48.5 -41 48.5 -119v-242q0 -72 -59 -96.5t-163 -24.5q-79 0 -135.5 35t-56.5 117q0 89 49 129.5t135 40.5q97 0 157 -35v59q0 112 -131 112q-43 0 -87 -12t-74 -36v72q30 19 81.5 30t102.5 11q84 0 132.5 -41zM370 59.5q31 10.5 31 42.5v112q-27 13 -63 20.5
t-75 7.5q-63 0 -97 -24t-34 -70q0 -52 40 -75.5t97 -23.5q70 0 101 10.5zM241 -50h79v-79h-79v79zM261 684h61l80 -120h-46l-65 70l-65 -70h-46z" />
    <glyph glyph-name="uni1EAE" unicode="&#x1eae;" horiz-adv-x="643" 
d="M466 208h-288l-80 -208h-78l266 667h72l265 -667h-77zM439 277l-117 305l-117 -305h234zM236.5 742.5q-36.5 29.5 -48.5 84.5h52q23 -62 83 -62q58 0 83 62h52q-10 -55 -47 -84.5t-88 -29.5q-50 0 -86.5 29.5zM348 953h74l-83 -115h-48z" />
    <glyph glyph-name="uni1EAF" unicode="&#x1eaf;" horiz-adv-x="554" 
d="M425.5 467q48.5 -41 48.5 -119v-242q0 -72 -59 -96.5t-163 -24.5q-79 0 -135.5 35t-56.5 117q0 89 49 129.5t135 40.5q97 0 157 -35v59q0 112 -131 112q-43 0 -87 -12t-74 -36v72q30 19 81.5 30t102.5 11q84 0 132.5 -41zM370 59.5q31 10.5 31 42.5v112q-27 13 -63 20.5
t-75 7.5q-63 0 -97 -24t-34 -70q0 -52 40 -75.5t97 -23.5q70 0 101 10.5zM204.5 574.5q-36.5 29.5 -48.5 84.5h52q23 -62 83 -62q58 0 83 62h52q-10 -55 -47 -84.5t-88 -29.5q-50 0 -86.5 29.5zM316 785h74l-83 -115h-48z" />
    <glyph glyph-name="uni1EB0" unicode="&#x1eb0;" horiz-adv-x="643" 
d="M466 208h-288l-80 -208h-78l266 667h72l265 -667h-77zM439 277l-117 305l-117 -305h234zM236.5 742.5q-36.5 29.5 -48.5 84.5h52q23 -62 83 -62q58 0 83 62h52q-10 -55 -47 -84.5t-88 -29.5q-50 0 -86.5 29.5zM218 947h73l57 -115h-47z" />
    <glyph glyph-name="uni1EB1" unicode="&#x1eb1;" horiz-adv-x="554" 
d="M425.5 467q48.5 -41 48.5 -119v-242q0 -72 -59 -96.5t-163 -24.5q-79 0 -135.5 35t-56.5 117q0 89 49 129.5t135 40.5q97 0 157 -35v59q0 112 -131 112q-43 0 -87 -12t-74 -36v72q30 19 81.5 30t102.5 11q84 0 132.5 -41zM370 59.5q31 10.5 31 42.5v112q-27 13 -63 20.5
t-75 7.5q-63 0 -97 -24t-34 -70q0 -52 40 -75.5t97 -23.5q70 0 101 10.5zM204.5 574.5q-36.5 29.5 -48.5 84.5h52q23 -62 83 -62q58 0 83 62h52q-10 -55 -47 -84.5t-88 -29.5q-50 0 -86.5 29.5zM186 779h73l57 -115h-47z" />
    <glyph glyph-name="uni1EB2" unicode="&#x1eb2;" horiz-adv-x="643" 
d="M466 208h-288l-80 -208h-78l266 667h72l265 -667h-77zM439 277l-117 305l-117 -305h234zM227.5 742.5q-36.5 29.5 -48.5 84.5h52q23 -62 83 -62q58 0 83 62h52q-10 -55 -47 -84.5t-88 -29.5q-50 0 -86.5 29.5zM289 884q19 1 28.5 8t9.5 16q0 13 -12.5 19.5t-35.5 6.5
q-11 0 -27 -2v43q15 3 31 3q38 0 65 -16t27 -52q0 -20 -13 -34.5t-40 -19.5v-24h-33v52z" />
    <glyph glyph-name="uni1EB3" unicode="&#x1eb3;" horiz-adv-x="554" 
d="M425.5 467q48.5 -41 48.5 -119v-242q0 -72 -59 -96.5t-163 -24.5q-79 0 -135.5 35t-56.5 117q0 89 49 129.5t135 40.5q97 0 157 -35v59q0 112 -131 112q-43 0 -87 -12t-74 -36v72q30 19 81.5 30t102.5 11q84 0 132.5 -41zM370 59.5q31 10.5 31 42.5v112q-27 13 -63 20.5
t-75 7.5q-63 0 -97 -24t-34 -70q0 -52 40 -75.5t97 -23.5q70 0 101 10.5zM195.5 574.5q-36.5 29.5 -48.5 84.5h52q23 -62 83 -62q58 0 83 62h52q-10 -55 -47 -84.5t-88 -29.5q-50 0 -86.5 29.5zM257 716q19 1 28.5 8t9.5 16q0 13 -12.5 19.5t-35.5 6.5q-11 0 -27 -2v43
q15 3 31 3q38 0 65 -16t27 -52q0 -20 -13 -34.5t-40 -19.5v-24h-33v52z" />
    <glyph glyph-name="uni1EB4" unicode="&#x1eb4;" horiz-adv-x="643" 
d="M466 208h-288l-80 -208h-78l266 667h72l265 -667h-77zM439 277l-117 305l-117 -305h234zM236.5 742.5q-36.5 29.5 -48.5 84.5h52q23 -62 83 -62q58 0 83 62h52q-10 -55 -47 -84.5t-88 -29.5q-50 0 -86.5 29.5zM182 862q-4 15 -4 30q0 37 23.5 59.5t53.5 22.5
q24 0 42.5 -9.5t43.5 -27.5q16 -13 27 -19.5t23 -6.5t19 8t7 23q0 5 -2 17h52q2 -14 2 -21q0 -37 -23.5 -60t-62.5 -23q-22 0 -41 10t-41 27q-16 13 -26.5 19t-20.5 6q-12 0 -20 -9.5t-8 -27.5q0 -4 2 -18h-46z" />
    <glyph glyph-name="uni1EB5" unicode="&#x1eb5;" horiz-adv-x="554" 
d="M425.5 467q48.5 -41 48.5 -119v-242q0 -72 -59 -96.5t-163 -24.5q-79 0 -135.5 35t-56.5 117q0 89 49 129.5t135 40.5q97 0 157 -35v59q0 112 -131 112q-43 0 -87 -12t-74 -36v72q30 19 81.5 30t102.5 11q84 0 132.5 -41zM370 59.5q31 10.5 31 42.5v112q-27 13 -63 20.5
t-75 7.5q-63 0 -97 -24t-34 -70q0 -52 40 -75.5t97 -23.5q70 0 101 10.5zM204.5 574.5q-36.5 29.5 -48.5 84.5h52q23 -62 83 -62q58 0 83 62h52q-10 -55 -47 -84.5t-88 -29.5q-50 0 -86.5 29.5zM150 694q-4 15 -4 30q0 37 23.5 59.5t53.5 22.5q24 0 42.5 -9.5t43.5 -27.5
q16 -13 27 -19.5t23 -6.5t19 8t7 23q0 5 -2 17h52q2 -14 2 -21q0 -37 -23.5 -60t-62.5 -23q-22 0 -41 10t-41 27q-16 13 -26.5 19t-20.5 6q-12 0 -20 -9.5t-8 -27.5q0 -4 2 -18h-46z" />
    <glyph glyph-name="uni1EB6" unicode="&#x1eb6;" horiz-adv-x="643" 
d="M466 208h-288l-80 -208h-78l266 667h72l265 -667h-77zM439 277l-117 305l-117 -305h234zM283 -50h79v-79h-79v79zM236.5 724.5q-36.5 29.5 -48.5 84.5h52q23 -62 83 -62q58 0 83 62h52q-10 -55 -47 -84.5t-88 -29.5q-50 0 -86.5 29.5z" />
    <glyph glyph-name="uni1EB7" unicode="&#x1eb7;" horiz-adv-x="534" 
d="M195 566.5q-28 27.5 -28 76.5h48q0 -30 13.5 -43t43.5 -13t43.5 13t13.5 43h48q0 -49 -28 -76.5t-77 -27.5t-77 27.5zM425.5 467q48.5 -41 48.5 -119v-242q0 -72 -59 -96.5t-163 -24.5q-79 0 -135.5 35t-56.5 117q0 89 49 129.5t135 40.5q97 0 157 -35v59q0 112 -131 112
q-43 0 -87 -12t-74 -36v72q30 19 81.5 30t102.5 11q84 0 132.5 -41zM370 59.5q31 10.5 31 42.5v112q-27 13 -63 20.5t-75 7.5q-63 0 -97 -24t-34 -70q0 -52 40 -75.5t97 -23.5q70 0 101 10.5zM241 -50h79v-79h-79v79z" />
    <glyph glyph-name="uni1EB8" unicode="&#x1eb8;" horiz-adv-x="581" 
d="M85 667h421v-68h-349v-230h307v-70h-307v-231h349v-68h-421v667zM241 -50h79v-79h-79v79z" />
    <glyph glyph-name="uni1EB9" unicode="&#x1eb9;" horiz-adv-x="547" 
d="M441 434q53 -74 51 -197h-364q0 -90 42 -138t120 -48q100 0 171 43v-74q-73 -35 -175 -35q-109 0 -170 67.5t-61 197.5q0 127 57.5 192.5t161.5 65.5q114 0 167 -74zM174 411.5q-34 -30.5 -43 -108.5h285q-5 70 -39.5 104.5t-102.5 34.5q-66 0 -100 -30.5zM243 -50h79
v-79h-79v79z" />
    <glyph glyph-name="uni1EBA" unicode="&#x1eba;" horiz-adv-x="581" 
d="M85 667h421v-68h-349v-230h307v-70h-307v-231h349v-68h-421v667zM282 754q19 1 28.5 8t9.5 16q0 13 -12.5 19.5t-35.5 6.5q-11 0 -27 -2v43q15 3 31 3q38 0 65 -16t27 -52q0 -20 -13 -34.5t-40 -19.5v-24h-33v52z" />
    <glyph glyph-name="uni1EBB" unicode="&#x1ebb;" horiz-adv-x="547" 
d="M441 434q53 -74 51 -197h-364q0 -90 42 -138t120 -48q100 0 171 43v-74q-73 -35 -175 -35q-109 0 -170 67.5t-61 197.5q0 127 57.5 192.5t161.5 65.5q114 0 167 -74zM174 411.5q-34 -30.5 -43 -108.5h285q-5 70 -39.5 104.5t-102.5 34.5q-66 0 -100 -30.5zM258 614
q19 1 28.5 8t9.5 16q0 13 -12.5 19.5t-35.5 6.5q-11 0 -27 -2v43q15 3 31 3q38 0 65 -16t27 -52q0 -20 -13 -34.5t-40 -19.5v-24h-33v52z" />
    <glyph glyph-name="uni1EBC" unicode="&#x1ebc;" horiz-adv-x="581" 
d="M85 667h421v-68h-349v-230h307v-70h-307v-231h349v-68h-421v667zM171 727q-4 15 -4 30q0 37 23.5 59.5t53.5 22.5q24 0 42.5 -9.5t43.5 -27.5q16 -13 27 -19.5t23 -6.5t19 8t7 23q0 5 -2 17h52q2 -14 2 -21q0 -37 -23.5 -60t-62.5 -23q-22 0 -41 10t-41 27
q-16 13 -26.5 19t-20.5 6q-12 0 -20 -9.5t-8 -27.5q0 -4 2 -18h-46z" />
    <glyph glyph-name="uni1EBD" unicode="&#x1ebd;" horiz-adv-x="547" 
d="M441 434q53 -74 51 -197h-364q0 -90 42 -138t120 -48q100 0 171 43v-74q-73 -35 -175 -35q-109 0 -170 67.5t-61 197.5q0 127 57.5 192.5t161.5 65.5q114 0 167 -74zM174 411.5q-34 -30.5 -43 -108.5h285q-5 70 -39.5 104.5t-102.5 34.5q-66 0 -100 -30.5zM142 544
q-4 15 -4 30q0 37 23.5 59.5t53.5 22.5q24 0 42.5 -9.5t43.5 -27.5q16 -13 27 -19.5t23 -6.5t19 8t7 23q0 5 -2 17h52q2 -14 2 -21q0 -37 -23.5 -60t-62.5 -23q-22 0 -41 10t-41 27q-16 13 -26.5 19t-20.5 6q-12 0 -20 -9.5t-8 -27.5q0 -4 2 -18h-46z" />
    <glyph glyph-name="uni1EBE" unicode="&#x1ebe;" horiz-adv-x="581" 
d="M85 667h421v-68h-349v-230h307v-70h-307v-231h349v-68h-421v667zM280 852h61l80 -120h-46l-65 70l-65 -70h-46zM450 919h74l-83 -115h-48z" />
    <glyph glyph-name="uni1EBF" unicode="&#x1ebf;" horiz-adv-x="547" 
d="M441 434q53 -74 51 -197h-364q0 -90 42 -138t120 -48q100 0 171 43v-74q-73 -35 -175 -35q-109 0 -170 67.5t-61 197.5q0 127 57.5 192.5t161.5 65.5q114 0 167 -74zM174 411.5q-34 -30.5 -43 -108.5h285q-5 70 -39.5 104.5t-102.5 34.5q-66 0 -100 -30.5zM256 684h61
l80 -120h-46l-65 70l-65 -70h-46zM426 751h74l-83 -115h-48z" />
    <glyph glyph-name="uni1EC0" unicode="&#x1ec0;" horiz-adv-x="581" 
d="M85 667h421v-68h-349v-230h307v-70h-307v-231h349v-68h-421v667zM277 852h61l80 -120h-46l-65 70l-65 -70h-46zM68 913h74l57 -115h-48z" />
    <glyph glyph-name="uni1EC1" unicode="&#x1ec1;" horiz-adv-x="547" 
d="M441 434q53 -74 51 -197h-364q0 -90 42 -138t120 -48q100 0 171 43v-74q-73 -35 -175 -35q-109 0 -170 67.5t-61 197.5q0 127 57.5 192.5t161.5 65.5q114 0 167 -74zM174 411.5q-34 -30.5 -43 -108.5h285q-5 70 -39.5 104.5t-102.5 34.5q-66 0 -100 -30.5zM253 684h61
l80 -120h-46l-65 70l-65 -70h-46zM44 745h74l57 -115h-48z" />
    <glyph glyph-name="uni1EC2" unicode="&#x1ec2;" horiz-adv-x="581" 
d="M85 667h421v-68h-349v-230h307v-70h-307v-231h349v-68h-421v667zM271 847h61l80 -120h-46l-65 70l-65 -70h-46zM417 831q19 1 28.5 8t9.5 16q0 13 -12.5 19.5t-35.5 6.5q-11 0 -27 -2v43q15 3 31 3q38 0 65 -16t27 -52q0 -20 -13 -34.5t-40 -19.5v-24h-33v52z" />
    <glyph glyph-name="uni1EC3" unicode="&#x1ec3;" horiz-adv-x="547" 
d="M441 434q53 -74 51 -197h-364q0 -90 42 -138t120 -48q100 0 171 43v-74q-73 -35 -175 -35q-109 0 -170 67.5t-61 197.5q0 127 57.5 192.5t161.5 65.5q114 0 167 -74zM174 411.5q-34 -30.5 -43 -108.5h285q-5 70 -39.5 104.5t-102.5 34.5q-66 0 -100 -30.5zM247 679h61
l80 -120h-46l-65 70l-65 -70h-46zM393 663q19 1 28.5 8t9.5 16q0 13 -12.5 19.5t-35.5 6.5q-11 0 -27 -2v43q15 3 31 3q38 0 65 -16t27 -52q0 -20 -13 -34.5t-40 -19.5v-24h-33v52z" />
    <glyph glyph-name="uni1EC4" unicode="&#x1ec4;" horiz-adv-x="581" 
d="M85 667h421v-68h-349v-230h307v-70h-307v-231h349v-68h-421v667zM277 832h61l80 -120h-46l-65 70l-65 -70h-46zM165 867q-4 15 -4 30q0 37 23.5 59.5t53.5 22.5q24 0 42.5 -9.5t43.5 -27.5q16 -13 27 -19.5t23 -6.5t19 8t7 23q0 5 -2 17h52q2 -14 2 -21q0 -37 -23.5 -60
t-62.5 -23q-22 0 -41 10t-41 27q-16 13 -26.5 19t-20.5 6q-12 0 -20 -9.5t-8 -27.5q0 -4 2 -18h-46z" />
    <glyph glyph-name="uni1EC5" unicode="&#x1ec5;" horiz-adv-x="547" 
d="M441 434q53 -74 51 -197h-364q0 -90 42 -138t120 -48q100 0 171 43v-74q-73 -35 -175 -35q-109 0 -170 67.5t-61 197.5q0 127 57.5 192.5t161.5 65.5q114 0 167 -74zM174 411.5q-34 -30.5 -43 -108.5h285q-5 70 -39.5 104.5t-102.5 34.5q-66 0 -100 -30.5zM253 664h61
l80 -120h-46l-65 70l-65 -70h-46zM141 699q-4 15 -4 30q0 37 23.5 59.5t53.5 22.5q24 0 42.5 -9.5t43.5 -27.5q16 -13 27 -19.5t23 -6.5t19 8t7 23q0 5 -2 17h52q2 -14 2 -21q0 -37 -23.5 -60t-62.5 -23q-22 0 -41 10t-41 27q-16 13 -26.5 19t-20.5 6q-12 0 -20 -9.5
t-8 -27.5q0 -4 2 -18h-46z" />
    <glyph glyph-name="uni1EC6" unicode="&#x1ec6;" horiz-adv-x="581" 
d="M85 667h421v-68h-349v-230h307v-70h-307v-231h349v-68h-421v667zM241 -50h79v-79h-79v79zM277 839h61l80 -120h-46l-65 70l-65 -70h-46z" />
    <glyph glyph-name="uni1EC7" unicode="&#x1ec7;" horiz-adv-x="547" 
d="M441 434q53 -74 51 -197h-364q0 -90 42 -138t120 -48q100 0 171 43v-74q-73 -35 -175 -35q-109 0 -170 67.5t-61 197.5q0 127 57.5 192.5t161.5 65.5q114 0 167 -74zM174 411.5q-34 -30.5 -43 -108.5h285q-5 70 -39.5 104.5t-102.5 34.5q-66 0 -100 -30.5zM253 684h61
l80 -120h-46l-65 70l-65 -70h-46zM243 -50h79v-79h-79v79z" />
    <glyph glyph-name="uni1EC8" unicode="&#x1ec8;" horiz-adv-x="242" 
d="M85 667h72v-667h-72v667zM96 754q19 1 28.5 8t9.5 16q0 13 -12.5 19.5t-35.5 6.5q-11 0 -27 -2v43q15 3 31 3q38 0 65 -16t27 -52q0 -20 -13 -34.5t-40 -19.5v-24h-33v52z" />
    <glyph glyph-name="uni1EC9" unicode="&#x1ec9;" horiz-adv-x="270" 
d="M117 616q19 1 28.5 8t9.5 15q0 13 -12.5 20t-35.5 7q-15 0 -27 -3v44q20 2 31 2q38 0 65 -15.5t27 -52.5q0 -20 -13 -34.5t-40 -18.5v-24h-33v52zM99 499h72v-499h-72v499z" />
    <glyph glyph-name="uni1ECA" unicode="&#x1eca;" horiz-adv-x="242" 
d="M85 667h72v-667h-72v667zM81 -50h79v-79h-79v79z" />
    <glyph glyph-name="uni1ECB" unicode="&#x1ecb;" horiz-adv-x="270" 
d="M95 667h80v-79h-80v79zM99 499h72v-499h-72v499zM95 -50h79v-79h-79v79z" />
    <glyph glyph-name="uni1ECC" unicode="&#x1ecc;" horiz-adv-x="719" 
d="M135.5 76.5q-75.5 86.5 -75.5 256.5t75.5 256.5t223.5 86.5q149 0 224.5 -86.5t75.5 -256.5t-75.5 -256.5t-224.5 -86.5q-148 0 -223.5 86.5zM531 124q54 66 54 209q0 142 -54 208.5t-172 66.5q-117 0 -171 -66.5t-54 -208.5q0 -143 54 -209t171 -66q118 0 172 66z
M327 -50h79v-79h-79v79z" />
    <glyph glyph-name="uni1ECD" unicode="&#x1ecd;" 
d="M112.5 53q-57.5 68 -57.5 195q0 129 58.5 194.5t169.5 65.5q117 0 174 -69.5t57 -190.5q0 -124 -60 -193.5t-169 -69.5q-115 0 -172.5 68zM442 248q0 94 -37 144t-121 50q-157 0 -157 -194q0 -197 157 -197q158 0 158 197zM247 -50h79v-79h-79v79z" />
    <glyph glyph-name="uni1ECE" unicode="&#x1ece;" horiz-adv-x="719" 
d="M135.5 76.5q-75.5 86.5 -75.5 256.5t75.5 256.5t223.5 86.5q149 0 224.5 -86.5t75.5 -256.5t-75.5 -256.5t-224.5 -86.5q-148 0 -223.5 86.5zM531 124q54 66 54 209q0 142 -54 208.5t-172 66.5q-117 0 -171 -66.5t-54 -208.5q0 -143 54 -209t171 -66q118 0 172 66z
M342 754q19 1 28.5 8t9.5 16q0 13 -12.5 19.5t-35.5 6.5q-11 0 -27 -2v43q15 3 31 3q38 0 65 -16t27 -52q0 -20 -13 -34.5t-40 -19.5v-24h-33v52z" />
    <glyph glyph-name="uni1ECF" unicode="&#x1ecf;" 
d="M112.5 53q-57.5 68 -57.5 195q0 129 58.5 194.5t169.5 65.5q117 0 174 -69.5t57 -190.5q0 -124 -60 -193.5t-169 -69.5q-115 0 -172.5 68zM442 248q0 94 -37 144t-121 50q-157 0 -157 -194q0 -197 157 -197q158 0 158 197zM262 614q19 1 28.5 8t9.5 16q0 13 -12.5 19.5
t-35.5 6.5q-11 0 -27 -2v43q15 3 31 3q38 0 65 -16t27 -52q0 -20 -13 -34.5t-40 -19.5v-24h-33v52z" />
    <glyph glyph-name="uni1ED0" unicode="&#x1ed0;" horiz-adv-x="719" 
d="M135.5 76.5q-75.5 86.5 -75.5 256.5t75.5 256.5t223.5 86.5q149 0 224.5 -86.5t75.5 -256.5t-75.5 -256.5t-224.5 -86.5q-148 0 -223.5 86.5zM531 124q54 66 54 209q0 142 -54 208.5t-172 66.5q-117 0 -171 -66.5t-54 -208.5q0 -143 54 -209t171 -66q118 0 172 66z
M340 852h61l80 -120h-46l-65 70l-65 -70h-46zM510 919h74l-83 -115h-48z" />
    <glyph glyph-name="uni1ED1" unicode="&#x1ed1;" 
d="M112.5 53q-57.5 68 -57.5 195q0 129 58.5 194.5t169.5 65.5q117 0 174 -69.5t57 -190.5q0 -124 -60 -193.5t-169 -69.5q-115 0 -172.5 68zM442 248q0 94 -37 144t-121 50q-157 0 -157 -194q0 -197 157 -197q158 0 158 197zM260 684h61l80 -120h-46l-65 70l-65 -70h-46z
M430 751h74l-83 -115h-48z" />
    <glyph glyph-name="uni1ED2" unicode="&#x1ed2;" horiz-adv-x="719" 
d="M135.5 76.5q-75.5 86.5 -75.5 256.5t75.5 256.5t223.5 86.5q149 0 224.5 -86.5t75.5 -256.5t-75.5 -256.5t-224.5 -86.5q-148 0 -223.5 86.5zM531 124q54 66 54 209q0 142 -54 208.5t-172 66.5q-117 0 -171 -66.5t-54 -208.5q0 -143 54 -209t171 -66q118 0 172 66z
M337 852h61l80 -120h-46l-65 70l-65 -70h-46zM128 913h74l57 -115h-48z" />
    <glyph glyph-name="uni1ED3" unicode="&#x1ed3;" 
d="M112.5 53q-57.5 68 -57.5 195q0 129 58.5 194.5t169.5 65.5q117 0 174 -69.5t57 -190.5q0 -124 -60 -193.5t-169 -69.5q-115 0 -172.5 68zM442 248q0 94 -37 144t-121 50q-157 0 -157 -194q0 -197 157 -197q158 0 158 197zM257 684h61l80 -120h-46l-65 70l-65 -70h-46z
M48 745h74l57 -115h-48z" />
    <glyph glyph-name="uni1ED4" unicode="&#x1ed4;" horiz-adv-x="719" 
d="M135.5 76.5q-75.5 86.5 -75.5 256.5t75.5 256.5t223.5 86.5q149 0 224.5 -86.5t75.5 -256.5t-75.5 -256.5t-224.5 -86.5q-148 0 -223.5 86.5zM531 124q54 66 54 209q0 142 -54 208.5t-172 66.5q-117 0 -171 -66.5t-54 -208.5q0 -143 54 -209t171 -66q118 0 172 66z
M331 847h61l80 -120h-46l-65 70l-65 -70h-46zM477 831q19 1 28.5 8t9.5 16q0 13 -12.5 19.5t-35.5 6.5q-11 0 -27 -2v43q15 3 31 3q38 0 65 -16t27 -52q0 -20 -13 -34.5t-40 -19.5v-24h-33v52z" />
    <glyph glyph-name="uni1ED5" unicode="&#x1ed5;" 
d="M112.5 53q-57.5 68 -57.5 195q0 129 58.5 194.5t169.5 65.5q117 0 174 -69.5t57 -190.5q0 -124 -60 -193.5t-169 -69.5q-115 0 -172.5 68zM442 248q0 94 -37 144t-121 50q-157 0 -157 -194q0 -197 157 -197q158 0 158 197zM251 679h61l80 -120h-46l-65 70l-65 -70h-46z
M397 663q19 1 28.5 8t9.5 16q0 13 -12.5 19.5t-35.5 6.5q-11 0 -27 -2v43q15 3 31 3q38 0 65 -16t27 -52q0 -20 -13 -34.5t-40 -19.5v-24h-33v52z" />
    <glyph glyph-name="uni1ED6" unicode="&#x1ed6;" horiz-adv-x="719" 
d="M135.5 76.5q-75.5 86.5 -75.5 256.5t75.5 256.5t223.5 86.5q149 0 224.5 -86.5t75.5 -256.5t-75.5 -256.5t-224.5 -86.5q-148 0 -223.5 86.5zM531 124q54 66 54 209q0 142 -54 208.5t-172 66.5q-117 0 -171 -66.5t-54 -208.5q0 -143 54 -209t171 -66q118 0 172 66z
M337 832h61l80 -120h-46l-65 70l-65 -70h-46zM225 867q-4 15 -4 30q0 37 23.5 59.5t53.5 22.5q24 0 42.5 -9.5t43.5 -27.5q16 -13 27 -19.5t23 -6.5t19 8t7 23q0 5 -2 17h52q2 -14 2 -21q0 -37 -23.5 -60t-62.5 -23q-22 0 -41 10t-41 27q-16 13 -26.5 19t-20.5 6
q-12 0 -20 -9.5t-8 -27.5q0 -4 2 -18h-46z" />
    <glyph glyph-name="uni1ED7" unicode="&#x1ed7;" 
d="M112.5 53q-57.5 68 -57.5 195q0 129 58.5 194.5t169.5 65.5q117 0 174 -69.5t57 -190.5q0 -124 -60 -193.5t-169 -69.5q-115 0 -172.5 68zM442 248q0 94 -37 144t-121 50q-157 0 -157 -194q0 -197 157 -197q158 0 158 197zM257 664h61l80 -120h-46l-65 70l-65 -70h-46z
M145 699q-4 15 -4 30q0 37 23.5 59.5t53.5 22.5q24 0 42.5 -9.5t43.5 -27.5q16 -13 27 -19.5t23 -6.5t19 8t7 23q0 5 -2 17h52q2 -14 2 -21q0 -37 -23.5 -60t-62.5 -23q-22 0 -41 10t-41 27q-16 13 -26.5 19t-20.5 6q-12 0 -20 -9.5t-8 -27.5q0 -4 2 -18h-46z" />
    <glyph glyph-name="uni1ED8" unicode="&#x1ed8;" horiz-adv-x="719" 
d="M135.5 76.5q-75.5 86.5 -75.5 256.5t75.5 256.5t223.5 86.5q149 0 224.5 -86.5t75.5 -256.5t-75.5 -256.5t-224.5 -86.5q-148 0 -223.5 86.5zM531 124q54 66 54 209q0 142 -54 208.5t-172 66.5q-117 0 -171 -66.5t-54 -208.5q0 -143 54 -209t171 -66q118 0 172 66z
M327 -50h79v-79h-79v79zM337 839h61l80 -120h-46l-65 70l-65 -70h-46z" />
    <glyph glyph-name="uni1ED9" unicode="&#x1ed9;" 
d="M112.5 53q-57.5 68 -57.5 195q0 129 58.5 194.5t169.5 65.5q117 0 174 -69.5t57 -190.5q0 -124 -60 -193.5t-169 -69.5q-115 0 -172.5 68zM442 248q0 94 -37 144t-121 50q-157 0 -157 -194q0 -197 157 -197q158 0 158 197zM257 684h61l80 -120h-46l-65 70l-65 -70h-46z
M247 -50h79v-79h-79v79z" />
    <glyph glyph-name="uni1EDA" unicode="&#x1eda;" horiz-adv-x="719" 
d="M659 333q0 -170 -75.5 -256.5t-224.5 -86.5q-148 0 -223.5 86.5t-75.5 256.5t75.5 256.5t223.5 86.5q59 0 107 -14q25 5 43.5 24t18.5 43v26h54v-28q0 -30 -13 -54.5t-35 -40.5q125 -78 125 -299zM531 124q54 66 54 209q0 142 -54 208.5t-172 66.5q-117 0 -171 -66.5
t-54 -208.5q0 -143 54 -209t171 -66q118 0 172 66zM406 847h74l-83 -115h-48z" />
    <glyph glyph-name="uni1EDB" unicode="&#x1edb;" 
d="M492 378.5q22 -56.5 22 -130.5q0 -124 -60 -193.5t-169 -69.5q-115 0 -172.5 68t-57.5 195q0 129 58.5 194.5t169.5 65.5q41 0 74 -9q27 2 47.5 22t20.5 46v26h54v-28q0 -32 -14.5 -57t-38.5 -41q44 -32 66 -88.5zM442 248q0 94 -37 144t-121 50q-157 0 -157 -194
q0 -197 157 -197q158 0 158 197zM318 679h74l-83 -115h-48z" />
    <glyph glyph-name="uni1EDC" unicode="&#x1edc;" horiz-adv-x="719" 
d="M659 333q0 -170 -75.5 -256.5t-224.5 -86.5q-148 0 -223.5 86.5t-75.5 256.5t75.5 256.5t223.5 86.5q59 0 107 -14q25 5 43.5 24t18.5 43v26h54v-28q0 -30 -13 -54.5t-35 -40.5q125 -78 125 -299zM531 124q54 66 54 209q0 142 -54 208.5t-172 66.5q-117 0 -171 -66.5
t-54 -208.5q0 -143 54 -209t171 -66q118 0 172 66zM265 836h74l57 -115h-48z" />
    <glyph glyph-name="uni1EDD" unicode="&#x1edd;" 
d="M492 378.5q22 -56.5 22 -130.5q0 -124 -60 -193.5t-169 -69.5q-115 0 -172.5 68t-57.5 195q0 129 58.5 194.5t169.5 65.5q41 0 74 -9q27 2 47.5 22t20.5 46v26h54v-28q0 -32 -14.5 -57t-38.5 -41q44 -32 66 -88.5zM442 248q0 94 -37 144t-121 50q-157 0 -157 -194
q0 -197 157 -197q158 0 158 197zM182 679h73l57 -115h-47z" />
    <glyph glyph-name="uni1EDE" unicode="&#x1ede;" horiz-adv-x="719" 
d="M659 333q0 -170 -75.5 -256.5t-224.5 -86.5q-148 0 -223.5 86.5t-75.5 256.5t75.5 256.5t223.5 86.5q59 0 107 -14q25 5 43.5 24t18.5 43v26h54v-28q0 -30 -13 -54.5t-35 -40.5q125 -78 125 -299zM531 124q54 66 54 209q0 142 -54 208.5t-172 66.5q-117 0 -171 -66.5
t-54 -208.5q0 -143 54 -209t171 -66q118 0 172 66zM342 754q19 1 28.5 8t9.5 16q0 13 -12.5 19.5t-35.5 6.5q-11 0 -27 -2v43q15 3 31 3q38 0 65 -16t27 -52q0 -20 -13 -34.5t-40 -19.5v-24h-33v52z" />
    <glyph glyph-name="uni1EDF" unicode="&#x1edf;" 
d="M492 378.5q22 -56.5 22 -130.5q0 -124 -60 -193.5t-169 -69.5q-115 0 -172.5 68t-57.5 195q0 129 58.5 194.5t169.5 65.5q41 0 74 -9q27 2 47.5 22t20.5 46v26h54v-28q0 -32 -14.5 -57t-38.5 -41q44 -32 66 -88.5zM442 248q0 94 -37 144t-121 50q-157 0 -157 -194
q0 -197 157 -197q158 0 158 197zM262 614q19 1 28.5 8t9.5 16q0 13 -12.5 19.5t-35.5 6.5q-11 0 -27 -2v43q15 3 31 3q38 0 65 -16t27 -52q0 -20 -13 -34.5t-40 -19.5v-24h-33v52z" />
    <glyph glyph-name="uni1EE0" unicode="&#x1ee0;" horiz-adv-x="719" 
d="M659 333q0 -170 -75.5 -256.5t-224.5 -86.5q-148 0 -223.5 86.5t-75.5 256.5t75.5 256.5t223.5 86.5q59 0 107 -14q25 5 43.5 24t18.5 43v26h54v-28q0 -30 -13 -54.5t-35 -40.5q125 -78 125 -299zM531 124q54 66 54 209q0 142 -54 208.5t-172 66.5q-117 0 -171 -66.5
t-54 -208.5q0 -143 54 -209t171 -66q118 0 172 66zM231 727q-4 15 -4 30q0 37 23.5 59.5t53.5 22.5q24 0 42.5 -9.5t43.5 -27.5q16 -13 27 -19.5t23 -6.5t19 8t7 23q0 5 -2 17h52q2 -14 2 -21q0 -37 -23.5 -60t-62.5 -23q-22 0 -41 10t-41 27q-16 13 -26.5 19t-20.5 6
q-12 0 -20 -9.5t-8 -27.5q0 -4 2 -18h-46z" />
    <glyph glyph-name="uni1EE1" unicode="&#x1ee1;" 
d="M492 378.5q22 -56.5 22 -130.5q0 -124 -60 -193.5t-169 -69.5q-115 0 -172.5 68t-57.5 195q0 129 58.5 194.5t169.5 65.5q41 0 74 -9q27 2 47.5 22t20.5 46v26h54v-28q0 -32 -14.5 -57t-38.5 -41q44 -32 66 -88.5zM442 248q0 94 -37 144t-121 50q-157 0 -157 -194
q0 -197 157 -197q158 0 158 197zM129 559q-4 15 -4 30q0 37 23.5 59.5t53.5 22.5q24 0 42.5 -9.5t43.5 -27.5q16 -13 27 -19.5t23 -6.5t19 8t7 23q0 5 -2 17h52q2 -14 2 -21q0 -37 -23.5 -60t-62.5 -23q-22 0 -41 10t-41 27q-16 13 -26.5 19t-20.5 6q-12 0 -20 -9.5
t-8 -27.5q0 -4 2 -18h-46z" />
    <glyph glyph-name="uni1EE2" unicode="&#x1ee2;" horiz-adv-x="719" 
d="M659 333q0 -170 -75.5 -256.5t-224.5 -86.5q-148 0 -223.5 86.5t-75.5 256.5t75.5 256.5t223.5 86.5q59 0 107 -14q25 5 43.5 24t18.5 43v26h54v-28q0 -30 -13 -54.5t-35 -40.5q125 -78 125 -299zM531 124q54 66 54 209q0 142 -54 208.5t-172 66.5q-117 0 -171 -66.5
t-54 -208.5q0 -143 54 -209t171 -66q118 0 172 66zM327 -50h79v-79h-79v79z" />
    <glyph glyph-name="uni1EE3" unicode="&#x1ee3;" 
d="M492 378.5q22 -56.5 22 -130.5q0 -124 -60 -193.5t-169 -69.5q-115 0 -172.5 68t-57.5 195q0 129 58.5 194.5t169.5 65.5q41 0 74 -9q27 2 47.5 22t20.5 46v26h54v-28q0 -32 -14.5 -57t-38.5 -41q44 -32 66 -88.5zM442 248q0 94 -37 144t-121 50q-157 0 -157 -194
q0 -197 157 -197q158 0 158 197zM247 -50h79v-79h-79v79z" />
    <glyph glyph-name="uni1EE4" unicode="&#x1ee4;" horiz-adv-x="692" 
d="M153.5 63q-68.5 73 -68.5 209v395h72v-399q0 -210 189 -210q191 0 191 210v399h70v-395q0 -136 -68.5 -209t-192.5 -73t-192.5 73zM306 -50h79v-79h-79v79z" />
    <glyph glyph-name="uni1EE5" unicode="&#x1ee5;" horiz-adv-x="587" 
d="M136.5 48q-54.5 57 -54.5 161v290h72v-293q0 -76 33.5 -112t103.5 -36t103.5 36t33.5 112v293h72v-290q0 -104 -54.5 -161t-154.5 -57t-154.5 57zM252 -49h79v-79h-79v79z" />
    <glyph glyph-name="uni1EE6" unicode="&#x1ee6;" horiz-adv-x="692" 
d="M153.5 63q-68.5 73 -68.5 209v395h72v-399q0 -210 189 -210q191 0 191 210v399h70v-395q0 -136 -68.5 -209t-192.5 -73t-192.5 73zM321 754q19 1 28.5 8t9.5 16q0 13 -12.5 19.5t-35.5 6.5q-11 0 -27 -2v43q15 3 31 3q38 0 65 -16t27 -52q0 -20 -13 -34.5t-40 -19.5v-24
h-33v52z" />
    <glyph glyph-name="uni1EE7" unicode="&#x1ee7;" horiz-adv-x="587" 
d="M277 616q19 1 28 8t9 16q0 13 -12.5 19.5t-34.5 6.5q-13 0 -27 -2v43q14 3 31 3q37 0 64 -16t27 -52q0 -21 -13 -35.5t-39 -18.5v-24h-33v52zM136.5 48q-54.5 57 -54.5 161v290h72v-293q0 -76 33.5 -112t103.5 -36t103.5 36t33.5 112v293h72v-290q0 -104 -54.5 -161
t-154.5 -57t-154.5 57z" />
    <glyph glyph-name="uni1EE8" unicode="&#x1ee8;" horiz-adv-x="742" 
d="M694 760v-28q0 -43 -24.5 -72.5t-62.5 -40.5v-347q0 -136 -68.5 -209t-192.5 -73t-192.5 73t-68.5 209v395h72v-399q0 -210 189 -210q191 0 191 210v399h41q25 5 43.5 24t18.5 43v26h54zM385 847h74l-83 -115h-48z" />
    <glyph glyph-name="uni1EE9" unicode="&#x1ee9;" horiz-adv-x="578" 
d="M577 593v-28q0 -41 -22 -69.5t-57 -40.5v-272q0 -95 -54.5 -146.5t-154.5 -51.5t-154.5 51.5t-54.5 146.5v316h72v-300q0 -76 33 -111.5t104 -35.5q70 0 103.5 35.5t33.5 111.5v300h23q28 0 51 20.5t23 47.5v26h54zM320 679h74l-83 -115h-48z" />
    <glyph glyph-name="uni1EEA" unicode="&#x1eea;" horiz-adv-x="742" 
d="M694 760v-28q0 -43 -24.5 -72.5t-62.5 -40.5v-347q0 -136 -68.5 -209t-192.5 -73t-192.5 73t-68.5 209v395h72v-399q0 -210 189 -210q191 0 191 210v399h41q25 5 43.5 24t18.5 43v26h54zM244 836h74l57 -115h-48z" />
    <glyph glyph-name="uni1EEB" unicode="&#x1eeb;" horiz-adv-x="578" 
d="M577 593v-28q0 -41 -22 -69.5t-57 -40.5v-272q0 -95 -54.5 -146.5t-154.5 -51.5t-154.5 51.5t-54.5 146.5v316h72v-300q0 -76 33 -111.5t104 -35.5q70 0 103.5 35.5t33.5 111.5v300h23q28 0 51 20.5t23 47.5v26h54zM184 679h73l57 -115h-47z" />
    <glyph glyph-name="uni1EEC" unicode="&#x1eec;" horiz-adv-x="742" 
d="M694 760v-28q0 -43 -24.5 -72.5t-62.5 -40.5v-347q0 -136 -68.5 -209t-192.5 -73t-192.5 73t-68.5 209v395h72v-399q0 -210 189 -210q191 0 191 210v399h41q25 5 43.5 24t18.5 43v26h54zM321 754q19 1 28.5 8t9.5 16q0 13 -12.5 19.5t-35.5 6.5q-11 0 -27 -2v43
q15 3 31 3q38 0 65 -16t27 -52q0 -20 -13 -34.5t-40 -19.5v-24h-33v52z" />
    <glyph glyph-name="uni1EED" unicode="&#x1eed;" horiz-adv-x="578" 
d="M577 593v-28q0 -41 -22 -69.5t-57 -40.5v-272q0 -95 -54.5 -146.5t-154.5 -51.5t-154.5 51.5t-54.5 146.5v316h72v-300q0 -76 33 -111.5t104 -35.5q70 0 103.5 35.5t33.5 111.5v300h23q28 0 51 20.5t23 47.5v26h54zM264 614q19 1 28.5 8t9.5 16q0 13 -12.5 19.5
t-35.5 6.5q-11 0 -27 -2v43q15 3 31 3q38 0 65 -16t27 -52q0 -20 -13 -34.5t-40 -19.5v-24h-33v52z" />
    <glyph glyph-name="uni1EEE" unicode="&#x1eee;" horiz-adv-x="742" 
d="M694 760v-28q0 -43 -24.5 -72.5t-62.5 -40.5v-347q0 -136 -68.5 -209t-192.5 -73t-192.5 73t-68.5 209v395h72v-399q0 -210 189 -210q191 0 191 210v399h41q25 5 43.5 24t18.5 43v26h54zM210 727q-4 15 -4 30q0 37 23.5 59.5t53.5 22.5q24 0 42.5 -9.5t43.5 -27.5
q16 -13 27 -19.5t23 -6.5t19 8t7 23q0 5 -2 17h52q2 -14 2 -21q0 -37 -23.5 -60t-62.5 -23q-22 0 -41 10t-41 27q-16 13 -26.5 19t-20.5 6q-12 0 -20 -9.5t-8 -27.5q0 -4 2 -18h-46z" />
    <glyph glyph-name="uni1EEF" unicode="&#x1eef;" horiz-adv-x="578" 
d="M577 593v-28q0 -41 -22 -69.5t-57 -40.5v-272q0 -95 -54.5 -146.5t-154.5 -51.5t-154.5 51.5t-54.5 146.5v316h72v-300q0 -76 33 -111.5t104 -35.5q70 0 103.5 35.5t33.5 111.5v300h23q28 0 51 20.5t23 47.5v26h54zM148 544q-4 15 -4 30q0 37 23.5 59.5t53.5 22.5
q24 0 42.5 -9.5t43.5 -27.5q16 -13 27 -19.5t23 -6.5t19 8t7 23q0 5 -2 17h52q2 -14 2 -21q0 -37 -23.5 -60t-62.5 -23q-22 0 -41 10t-41 27q-16 13 -26.5 19t-20.5 6q-12 0 -20 -9.5t-8 -27.5q0 -4 2 -18h-46z" />
    <glyph glyph-name="uni1EF0" unicode="&#x1ef0;" horiz-adv-x="742" 
d="M694 760v-28q0 -43 -24.5 -72.5t-62.5 -40.5v-347q0 -136 -68.5 -209t-192.5 -73t-192.5 73t-68.5 209v395h72v-399q0 -210 189 -210q191 0 191 210v399h41q25 5 43.5 24t18.5 43v26h54zM306 -50h79v-79h-79v79z" />
    <glyph glyph-name="uni1EF1" unicode="&#x1ef1;" horiz-adv-x="578" 
d="M577 593v-28q0 -41 -22 -69.5t-57 -40.5v-272q0 -95 -54.5 -146.5t-154.5 -51.5t-154.5 51.5t-54.5 146.5v316h72v-300q0 -76 33 -111.5t104 -35.5q70 0 103.5 35.5t33.5 111.5v300h23q28 0 51 20.5t23 47.5v26h54zM249 -50h79v-79h-79v79z" />
    <glyph glyph-name="Ygrave" unicode="&#x1ef2;" horiz-adv-x="598" 
d="M333 306v-306h-72v306l-249 361h87l197 -292l198 292h87zM203 836h74l57 -115h-48z" />
    <glyph glyph-name="ygrave" unicode="&#x1ef3;" horiz-adv-x="540" 
d="M505 499l-214 -548q-31 -80 -72.5 -112t-84.5 -32q-24 0 -47 9v66q20 -9 43 -9q43 0 67 31t45 94l-207 501h82l158 -407l158 407h72zM170 679h73l57 -115h-47z" />
    <glyph glyph-name="uni1EF4" unicode="&#x1ef4;" horiz-adv-x="598" 
d="M333 306v-306h-72v306l-249 361h87l197 -292l198 292h87zM259 -50h79v-79h-79v79z" />
    <glyph glyph-name="uni1EF5" unicode="&#x1ef5;" horiz-adv-x="540" 
d="M505 499l-214 -548q-31 -80 -72.5 -112t-84.5 -32q-24 0 -47 9v66q20 -9 43 -9q43 0 67 31t45 94l-207 501h82l158 -407l158 407h72zM358 -50h79v-79h-79v79z" />
    <glyph glyph-name="uni1EF6" unicode="&#x1ef6;" horiz-adv-x="598" 
d="M333 306v-306h-72v306l-249 361h87l197 -292l198 292h87zM280 754q19 1 28.5 8t9.5 16q0 13 -12.5 19.5t-35.5 6.5q-11 0 -27 -2v43q15 3 31 3q38 0 65 -16t27 -52q0 -20 -13 -34.5t-40 -19.5v-24h-33v52z" />
    <glyph glyph-name="uni1EF7" unicode="&#x1ef7;" horiz-adv-x="540" 
d="M505 499l-214 -548q-31 -80 -72.5 -112t-84.5 -32q-24 0 -47 9v66q20 -9 43 -9q43 0 67 31t45 94l-207 501h82l158 -407l158 407h72zM250 614q19 1 28.5 8t9.5 16q0 13 -12.5 19.5t-35.5 6.5q-11 0 -27 -2v43q15 3 31 3q38 0 65 -16t27 -52q0 -20 -13 -34.5t-40 -19.5
v-24h-33v52z" />
    <glyph glyph-name="uni1EF8" unicode="&#x1ef8;" horiz-adv-x="598" 
d="M333 306v-306h-72v306l-249 361h87l197 -292l198 292h87zM169 727q-4 15 -4 30q0 37 23.5 59.5t53.5 22.5q24 0 42.5 -9.5t43.5 -27.5q16 -13 27 -19.5t23 -6.5t19 8t7 23q0 5 -2 17h52q2 -14 2 -21q0 -37 -23.5 -60t-62.5 -23q-22 0 -41 10t-41 27q-16 13 -26.5 19
t-20.5 6q-12 0 -20 -9.5t-8 -27.5q0 -4 2 -18h-46z" />
    <glyph glyph-name="uni1EF9" unicode="&#x1ef9;" horiz-adv-x="540" 
d="M505 499l-214 -548q-31 -80 -72.5 -112t-84.5 -32q-24 0 -47 9v66q20 -9 43 -9q43 0 67 31t45 94l-207 501h82l158 -407l158 407h72zM134 544q-4 15 -4 30q0 37 23.5 59.5t53.5 22.5q24 0 42.5 -9.5t43.5 -27.5q16 -13 27 -19.5t23 -6.5t19 8t7 23q0 5 -2 17h52
q2 -14 2 -21q0 -37 -23.5 -60t-62.5 -23q-22 0 -41 10t-41 27q-16 13 -26.5 19t-20.5 6q-12 0 -20 -9.5t-8 -27.5q0 -4 2 -18h-46z" />
    <glyph glyph-name="endash" unicode="&#x2013;" horiz-adv-x="560" 
d="M69 320h420v-62h-420v62z" />
    <glyph glyph-name="emdash" unicode="&#x2014;" horiz-adv-x="891" 
d="M79 324h733v-66h-733v66z" />
    <glyph glyph-name="quoteleft" unicode="&#x2018;" horiz-adv-x="255" 
d="M47 676h82l74 -196h-72z" />
    <glyph glyph-name="quoteright" unicode="&#x2019;" horiz-adv-x="255" 
d="M121 676h82l-84 -196h-72z" />
    <glyph glyph-name="quotesinglbase" unicode="&#x201a;" horiz-adv-x="300" 
d="M146 84h81l-83 -196h-72z" />
    <glyph glyph-name="quotedblleft" unicode="&#x201c;" horiz-adv-x="391" 
d="M47 676h82l74 -196h-72zM183 676h82l74 -196h-72z" />
    <glyph glyph-name="quotedblright" unicode="&#x201d;" horiz-adv-x="387" 
d="M121 676h82l-84 -196h-72zM257 676h82l-84 -196h-72z" />
    <glyph glyph-name="quotedblbase" unicode="&#x201e;" horiz-adv-x="436" 
d="M146 84h81l-83 -196h-72zM282 84h82l-84 -196h-72z" />
    <glyph glyph-name="dagger" unicode="&#x2020;" horiz-adv-x="462" 
d="M208 484h-114v48h114v135h48v-135h113v-48h-113v-387h-48v387z" />
    <glyph glyph-name="daggerdbl" unicode="&#x2021;" horiz-adv-x="494" 
d="M216 147h-148v60h148v202h-148v60h148v147h60v-147h147v-60h-147v-202h147v-60h-147v-147h-60v147z" />
    <glyph glyph-name="bullet" unicode="&#x2022;" horiz-adv-x="415" 
d="M124 252q-34 34 -34 82t34 81.5t82 33.5q47 0 81 -33.5t34 -81.5t-34 -82t-81 -34q-48 0 -82 34z" />
    <glyph glyph-name="ellipsis" unicode="&#x2026;" horiz-adv-x="770" 
d="M107 80h80v-80h-80v80zM347 80h79v-80h-79v80zM586 80h79v-80h-79v80z" />
    <glyph glyph-name="perthousand" unicode="&#x2030;" horiz-adv-x="1097" 
d="M48 493q0 184 142 184q70 0 105.5 -46.5t35.5 -137.5t-35.5 -137.5t-105.5 -46.5q-142 0 -142 184zM244.5 387.5q25.5 28.5 25.5 105.5t-25.5 105.5t-54.5 28.5t-55 -28.5t-26 -105.5t26 -105.5t55 -28.5t54.5 28.5zM430 179q0 184 142 184q70 0 105.5 -46.5t35.5 -137.5
t-35.5 -137.5t-105.5 -46.5q-142 0 -142 184zM626.5 73.5q25.5 28.5 25.5 105.5t-25.5 105.5t-54.5 28.5t-55 -28.5t-26 -105.5t26 -105.5t55 -28.5t54.5 28.5zM766 179q0 184 142 184q70 0 105.5 -46.5t35.5 -137.5t-35.5 -137.5t-105.5 -46.5q-142 0 -142 184zM962.5 73.5
q25.5 28.5 25.5 105.5t-25.5 105.5t-54.5 28.5t-55 -28.5t-26 -105.5t26 -105.5t55 -28.5t54.5 28.5zM546 685h68l-407 -707h-68z" />
    <glyph glyph-name="guilsinglleft" unicode="&#x2039;" horiz-adv-x="347" 
d="M31 255l169 190h97l-178 -190l178 -191h-97z" />
    <glyph glyph-name="guilsinglright" unicode="&#x203a;" horiz-adv-x="379" 
d="M244 255l-177 190h96l170 -190l-170 -191h-96z" />
    <glyph glyph-name="fraction" unicode="&#x2044;" horiz-adv-x="444" 
d="M390 685h68l-407 -707h-68z" />
    <glyph glyph-name="zero.superior" unicode="&#x2070;" horiz-adv-x="379" 
d="M48 641q0 184 142 184q70 0 105.5 -46.5t35.5 -137.5t-35.5 -137.5t-105.5 -46.5q-142 0 -142 184zM244.5 535.5q25.5 28.5 25.5 105.5t-25.5 105.5t-54.5 28.5t-55 -28.5t-26 -105.5t26 -105.5t55 -28.5t54.5 28.5z" />
    <glyph glyph-name="four.superior" unicode="&#x2074;" horiz-adv-x="328" 
d="M293 607v-56h-51v-88h-69v88h-144v61l170 210h43v-215h51zM173 607v98l-81 -98h81z" />
    <glyph glyph-name="five.superior" unicode="&#x2075;" horiz-adv-x="319" 
d="M63 481v60q42 -25 85 -25q64 0 64 49q0 63 -71 63q-16 0 -29.5 -4t-22 -8t-10.5 -5l-24 45l18 166h184v-59h-131l-10 -86q32 9 64 9q38 0 69 -25t31 -88q0 -64 -33 -89t-81 -25q-63 0 -103 22z" />
    <glyph glyph-name="six.superior" unicode="&#x2076;" horiz-adv-x="338" 
d="M61.5 500q-35.5 41 -35.5 127q0 120 56 159.5t138 39.5q22 0 52 -6v-57q-24 7 -48 7q-40 0 -79.5 -20.5t-47.5 -80.5q33 23 81 23q56 0 89 -30t33 -82q0 -49 -30 -85t-92 -36q-81 0 -116.5 41zM216.5 531.5q14.5 16.5 14.5 48.5q0 22 -19.5 39t-46.5 17q-23 0 -41 -9.5
t-29 -20.5q1 -53 23 -72t50 -19q34 0 48.5 16.5z" />
    <glyph glyph-name="seven.superior" unicode="&#x2077;" horiz-adv-x="315" 
d="M284 822v-37l-145 -322h-63l134 300h-170v59h244z" />
    <glyph glyph-name="eight.superior" unicode="&#x2078;" horiz-adv-x="332" 
d="M73.5 492.5q-30.5 33.5 -30.5 77.5q0 29 13.5 48.5t30.5 30t17 8.5t-13.5 7.5t-24 27t-10.5 42.5q0 38 27 65t84 27q56 0 83 -27t27 -65q0 -26 -10 -43t-23 -26.5t-13 -7.5t16.5 -8.5t30 -30t13.5 -48.5q0 -44 -30.5 -77.5t-93.5 -33.5t-93.5 33.5zM198 695q11 13 11 31
q0 42 -42 42q-16 0 -28.5 -10t-12.5 -33q0 -17 10 -30t31 -13q20 0 31 13zM209 531q13 15 13 39q0 30 -16 45.5t-39 15.5t-39 -15.5t-16 -45.5q0 -22 15.5 -38t39.5 -16q29 0 42 15z" />
    <glyph glyph-name="nine.superior" unicode="&#x2079;" horiz-adv-x="338" 
d="M57 466v56q24 -7 48 -7q40 0 79.5 20.5t47.5 80.5q-33 -23 -81 -23q-56 0 -89 30t-33 82q0 49 30 85t92 36q81 0 116.5 -41t35.5 -127q0 -120 -56 -159.5t-137 -39.5q-27 0 -53 7zM202.5 658.5q20.5 9.5 31.5 20.5q0 55 -22.5 73t-60.5 18q-31 0 -42 -21t-11 -44
q0 -21 17 -38.5t36 -17.5q31 0 51.5 9.5z" />
    <glyph glyph-name="zero.inferior" unicode="&#x2080;" horiz-adv-x="379" 
d="M48 28q0 184 142 184q70 0 105.5 -46.5t35.5 -137.5t-35.5 -137.5t-105.5 -46.5q-142 0 -142 184zM244.5 -77.5q25.5 28.5 25.5 105.5t-25.5 105.5t-54.5 28.5t-55 -28.5t-26 -105.5t26 -105.5t55 -28.5t54.5 28.5z" />
    <glyph glyph-name="one.inferior" unicode="&#x2081;" horiz-adv-x="234" 
d="M163 210v-359h-68v268l-42 -27v76l66 42h44z" />
    <glyph glyph-name="two.inferior" unicode="&#x2082;" horiz-adv-x="328" 
d="M279 -90v-59h-226v34q56 42 104 103t48 114q0 22 -18 36.5t-47 14.5q-22 0 -44.5 -9t-38.5 -21v64q44 27 97 27q61 0 90.5 -29.5t29.5 -70.5q0 -49 -35.5 -103t-88.5 -101h129z" />
    <glyph glyph-name="three.inferior" unicode="&#x2083;" horiz-adv-x="323" 
d="M53 -131v62q44 -24 91 -24q30 0 50 13.5t20 42.5q0 25 -21 37.5t-51 12.5h-39v57h41q21 0 36 11t15 37q0 15 -15.5 25t-40.5 10q-41 0 -77 -19v62q40 18 82 18q61 0 90 -28.5t29 -67.5q0 -24 -10 -40t-23 -25t-13 -8q4 -3 22 -12.5t30 -29.5t12 -50q0 -44 -32.5 -75
t-99.5 -31q-50 0 -96 22z" />
    <glyph glyph-name="four.inferior" unicode="&#x2084;" horiz-adv-x="328" 
d="M293 -5v-56h-51v-88h-69v88h-144v61l170 210h43v-215h51zM173 -5v98l-81 -98h81z" />
    <glyph glyph-name="five.inferior" unicode="&#x2085;" horiz-adv-x="319" 
d="M63 -131v60q42 -25 85 -25q64 0 64 49q0 63 -71 63q-16 0 -29.5 -4t-22 -8t-10.5 -5l-24 45l18 166h184v-59h-131l-10 -86q32 9 64 9q38 0 69 -25t31 -88q0 -64 -33 -89t-81 -25q-63 0 -103 22z" />
    <glyph glyph-name="six.inferior" unicode="&#x2086;" horiz-adv-x="338" 
d="M61.5 -112q-35.5 41 -35.5 127q0 120 56 159.5t138 39.5q22 0 52 -6v-57q-24 7 -48 7q-40 0 -79.5 -20.5t-47.5 -80.5q33 23 81 23q56 0 89 -30t33 -82q0 -49 -30 -85t-92 -36q-81 0 -116.5 41zM216.5 -80.5q14.5 16.5 14.5 48.5q0 22 -19.5 39t-46.5 17q-23 0 -41 -9.5
t-29 -20.5q1 -53 23 -72t50 -19q34 0 48.5 16.5z" />
    <glyph glyph-name="seven.inferior" unicode="&#x2087;" horiz-adv-x="315" 
d="M284 210v-37l-145 -322h-63l134 300h-170v59h244z" />
    <glyph glyph-name="eight.inferior" unicode="&#x2088;" horiz-adv-x="332" 
d="M73.5 -119.5q-30.5 33.5 -30.5 77.5q0 29 13.5 48.5t30.5 30t17 8.5t-13.5 7.5t-24 27t-10.5 42.5q0 38 27 65t84 27q56 0 83 -27t27 -65q0 -26 -10 -43t-23 -26.5t-13 -7.5t16.5 -8.5t30 -30t13.5 -48.5q0 -44 -30.5 -77.5t-93.5 -33.5t-93.5 33.5zM198 83q11 13 11 31
q0 42 -42 42q-16 0 -28.5 -10t-12.5 -33q0 -17 10 -30t31 -13q20 0 31 13zM209 -81q13 15 13 39q0 30 -16 45.5t-39 15.5t-39 -15.5t-16 -45.5q0 -22 15.5 -38t39.5 -16q29 0 42 15z" />
    <glyph glyph-name="nine.inferior" unicode="&#x2089;" horiz-adv-x="338" 
d="M57 -146v56q24 -7 48 -7q40 0 79.5 20.5t47.5 80.5q-33 -23 -81 -23q-56 0 -89 30t-33 82q0 49 30 85t92 36q81 0 116.5 -41t35.5 -127q0 -120 -56 -159.5t-137 -39.5q-27 0 -53 7zM202.5 46.5q20.5 9.5 31.5 20.5q0 55 -22.5 73t-60.5 18q-31 0 -42 -21t-11 -44
q0 -21 17 -38.5t36 -17.5q31 0 51.5 9.5z" />
    <glyph glyph-name="colonmonetary" unicode="&#x20a1;" horiz-adv-x="651" 
d="M377 60q106 0 195 49v-69q-102 -48 -203 -48q-48 0 -89 9l-13 -23h-57l21 37q-34 13 -64 35l-43 -72h-57l64 107q-71 86 -71 249q0 170 77.5 256t231.5 86q80 0 156 -29l-320 -534q26 -24 61 -36l323 566h57l-330 -579q25 -4 61 -4zM173 153l271 450q-38 5 -67 5
q-126 0 -184 -66t-58 -208q0 -117 38 -181z" />
    <glyph glyph-name="franc" unicode="&#x20a3;" horiz-adv-x="539" 
d="M157 599v-230h296v-70h-296v-135h89v-53h-89v-111h-72v111h-83v53h83v503h409v-68h-337z" />
    <glyph glyph-name="lira" unicode="&#x20a4;" horiz-adv-x="600" 
d="M241 574q-32 -33 -32 -81v-106h201v-66h-201v-48h201v-66h-201v-129q35 -4 76 -14q7 -1 34.5 -6.5t50.5 -8t43 -2.5q47 0 87 15v-73q-41 -15 -82 -15q-49 0 -130 17q-49 9 -75.5 13t-55.5 4q-59 0 -106 -23v73q39 19 86 22v127h-86v66h86v48h-86v66h86v103q0 49 21.5 91
t69 68.5t121.5 26.5q79 0 151 -39v-73q-68 43 -145 43q-82 0 -114 -33z" />
    <glyph glyph-name="uni20A6" unicode="&#x20a6;" horiz-adv-x="722" 
d="M714 292h-77v-292h-81l-207 292h-192v-292h-72v292h-77v53h77v322h82l228 -322h170v322h72v-322h77v-53zM311 345l-154 217v-217h154zM565 292h-132l132 -187v187z" />
    <glyph glyph-name="peseta" unicode="&#x20a7;" horiz-adv-x="613" 
d="M603 420h-53q-12 -80 -70 -122.5t-158 -42.5h-165v-255h-72v420h-65v53h65v194h237q108 0 167.5 -50t63.5 -144h50v-53zM447 362q34 38 34 99t-34 99t-134 38h-156v-274h156q100 0 134 38z" />
    <glyph glyph-name="uni20A9" unicode="&#x20a9;" horiz-adv-x="951" 
d="M859 383h46v-53h-63l-106 -330h-73l-104 330h-142l-104 -330h-74l-106 330h-100v53h83l-91 284h76l90 -284h176l85 284h72l87 -284h176l88 284h76zM542 383l-54 170l-54 -170h108zM351 330h-144l74 -232zM770 330h-143l71 -232z" />
    <glyph glyph-name="dong" unicode="&#x20ab;" horiz-adv-x="413" 
d="M87 158.5q-48 38.5 -48 146.5q0 59 26.5 100.5t65 62.5t75.5 21q45 0 81 -13v57h-86v64h86v62h72v-62h44v-64h-44v-299q0 -24 -18 -51t-54 -45t-87 -18q-65 0 -113 38.5zM287 241v168q-18 8 -36.5 12t-30.5 4q-47 0 -78 -33t-31 -88q0 -48 17 -75t37.5 -36.5t34.5 -9.5
q87 0 87 58zM56 66h299v-65h-299v65z" />
    <glyph glyph-name="Euro" unicode="&#x20ac;" horiz-adv-x="679" 
d="M123 228h-73v60h66q-2 30 -2 46t2 46h-66v60h73q22 117 97.5 176.5t202.5 59.5q105 0 203 -39v-69q-95 40 -195 40q-101 0 -158.5 -41t-76.5 -127h321v-60h-329q-2 -30 -2 -46q0 -18 2 -46h329v-60h-321q19 -86 76.5 -127t158.5 -41q102 0 195 39v-69q-99 -38 -203 -38
q-256 0 -300 236z" />
    <glyph glyph-name="uni20AD" unicode="&#x20ad;" horiz-adv-x="613" 
d="M229 301l-72 -79v-222h-72v363h-67v53h67v251h72v-251h90l226 251h92l-230 -251h127v-53h-176l-7 -8l309 -355h-100zM157 316l42 47h-42v-47z" />
    <glyph glyph-name="uni20B1" unicode="&#x20b1;" horiz-adv-x="613" 
d="M603 481h-51q1 -7 1 -20q0 -26 -5 -54h55v-53h-74q-26 -49 -78.5 -74t-128.5 -25h-165v-255h-72v354h-65v53h65v74h-65v53h65v133h237q89 0 145 -34t76 -99h60v-53zM447 362q34 38 34 99t-34 99t-134 38h-156v-274h156q100 0 134 38z" />
    <glyph glyph-name="uni20B2" unicode="&#x20b2;" horiz-adv-x="687" 
d="M602 42q-99 -47 -212 -52v-88h-72v91q-128 13 -193 99.5t-65 241.5t65 240t193 99v76h72v-73q103 -5 189 -45v-75q-55 24 -104 38t-98 14q-127 0 -186 -66.5t-59 -207.5q0 -142 59 -208.5t186 -66.5q80 0 153 24v190h-161v70h233v-301z" />
    <glyph glyph-name="uni20B5" unicode="&#x20b5;" horiz-adv-x="622" 
d="M188 542q-58 -66 -58 -208q0 -143 57.5 -208.5t184.5 -65.5q106 0 195 49v-69q-89 -41 -177 -47v-91h-72v92q-263 26 -263 340t263 340v75h72v-74q89 -6 177 -48v-69q-94 50 -195 50q-126 0 -184 -66z" />
    <glyph glyph-name="uni20B9" unicode="&#x20b9;" horiz-adv-x="506" 
d="M463 599h-66q34 -46 34 -126q0 -77 -41 -130t-110 -66l181 -277h-85l-174 269h-137v68h136q82 0 120 33t38 98q0 64 -30 97.5t-103 33.5h-161v68h398v-68z" />
    <glyph glyph-name="uni20BA" unicode="&#x20ba;" horiz-adv-x="538" 
d="M468 109v-69q-102 -48 -203 -48q-109 0 -180 44v192l-62 -53v69l62 53v49l-62 -53v69l62 53v252h72v-191l98 84v-69l-98 -84v-49l98 84v-69l-98 -84v-209q46 -20 116 -20q106 0 195 49z" />
    <glyph glyph-name="uni20BC" unicode="&#x20bc;" horiz-adv-x="692" 
d="M548.5 582.5q58.5 -72.5 58.5 -197.5v-395h-72v399q0 190 -153 208v-599h-72v599q-155 -18 -155 -208v-399h-70v395q0 125 58.5 197.5t166.5 82.5v97h72v-97q108 -10 166.5 -82.5z" />
    <glyph glyph-name="uni20BD" unicode="&#x20bd;" horiz-adv-x="613" 
d="M493.5 614q59.5 -53 59.5 -153t-59.5 -153t-171.5 -53h-165v-99h103v-53h-103v-103h-72v103h-69v53h69v115h-69v53h69v343h237q112 0 171.5 -53zM447 362q34 38 34 99t-34 99t-134 38h-156v-274h156q100 0 134 38z" />
    <glyph glyph-name="uni2116" unicode="&#x2116;" horiz-adv-x="1062" 
d="M87 667h80l343 -548v548h72v-667h-79l-344 550v-550h-72v667zM709.5 221.5q-42.5 46.5 -42.5 134.5t42.5 135t122.5 47t123 -47t43 -135t-43 -134.5t-123 -46.5t-122.5 46.5zM903.5 263q25.5 23 25.5 93t-25.5 93.5t-71.5 23.5q-45 0 -70.5 -23.5t-25.5 -93.5
q0 -69 25.5 -92.5t70.5 -23.5q46 0 71.5 23zM672 127h321v-67h-321v67z" />
    <glyph glyph-name="uni2120" unicode="&#x2120;" horiz-adv-x="709" 
d="M60 354v39q39 -27 96 -27q85 0 85 53q0 31 -21.5 45.5t-65.5 27.5q-48 14 -72.5 31t-24.5 56q0 38 28 65.5t87 27.5q44 0 84 -20v-37q-40 21 -80 21t-61.5 -14.5t-21.5 -42.5q0 -21 18 -32t55 -22q36 -11 57.5 -21.5t37.5 -31t16 -53.5q0 -42 -31.5 -65.5t-87.5 -23.5
q-54 0 -98 24zM330 667h39l115 -170l115 170h39v-333h-36v274l-118 -170l-118 170v-274h-36v333z" />
    <glyph glyph-name="trademark" unicode="&#x2122;" horiz-adv-x="757" 
d="M167 632h-118v35h272v-35h-118v-298h-36v298zM372 667h39l115 -169l115 169h39v-333h-36v274l-118 -170l-118 170v-274h-36v333z" />
    <glyph glyph-name="uni2153" unicode="&#x2153;" horiz-adv-x="710" 
d="M163 674v-359h-68v268l-42 -27v76l66 42h44zM530 685h68l-407 -707h-68zM482 19v62q44 -24 91 -24q30 0 50 13.5t20 42.5q0 25 -21 37.5t-51 12.5h-39v57h41q21 0 36 11t15 37q0 15 -15.5 25t-40.5 10q-41 0 -77 -19v62q40 18 82 18q61 0 90 -28.5t29 -67.5
q0 -24 -10 -40t-23 -25t-13 -8q4 -3 22 -12.5t30 -29.5t12 -50q0 -44 -32.5 -75t-99.5 -31q-50 0 -96 22z" />
    <glyph glyph-name="oneeighth" unicode="&#x215b;" horiz-adv-x="691" 
d="M163 674v-359h-68v268l-42 -27v76l66 42h44zM480 685h68l-407 -707h-68zM423.5 30.5q-30.5 33.5 -30.5 77.5q0 29 13.5 48.5t30.5 30t17 8.5t-13.5 7.5t-24 27t-10.5 42.5q0 38 27 65t84 27q56 0 83 -27t27 -65q0 -26 -10 -43t-23 -26.5t-13 -7.5t16.5 -8.5t30 -30
t13.5 -48.5q0 -44 -30.5 -77.5t-93.5 -33.5t-93.5 33.5zM548 233q11 13 11 31q0 42 -42 42q-16 0 -28.5 -10t-12.5 -33q0 -17 10 -30t31 -13q20 0 31 13zM559 69q13 15 13 39q0 30 -16 45.5t-39 15.5t-39 -15.5t-16 -45.5q0 -22 15.5 -38t39.5 -16q29 0 42 15z" />
    <glyph glyph-name="threeeighths" unicode="&#x215c;" horiz-adv-x="761" 
d="M53 333v62q44 -24 91 -24q30 0 50 13.5t20 42.5q0 25 -21 37.5t-51 12.5h-39v57h41q21 0 36 11t15 37q0 15 -15.5 25t-40.5 10q-41 0 -77 -19v62q40 18 82 18q61 0 90 -28.5t29 -67.5q0 -24 -10 -40t-23 -25t-13 -8q4 -3 22 -12.5t30 -29.5t12 -50q0 -44 -32.5 -75
t-99.5 -31q-50 0 -96 22zM550 685h68l-407 -707h-68zM493.5 30.5q-30.5 33.5 -30.5 77.5q0 29 13.5 48.5t30.5 30t17 8.5t-13.5 7.5t-24 27t-10.5 42.5q0 38 27 65t84 27q56 0 83 -27t27 -65q0 -26 -10 -43t-23 -26.5t-13 -7.5t16.5 -8.5t30 -30t13.5 -48.5
q0 -44 -30.5 -77.5t-93.5 -33.5t-93.5 33.5zM618 233q11 13 11 31q0 42 -42 42q-16 0 -28.5 -10t-12.5 -33q0 -17 10 -30t31 -13q20 0 31 13zM629 69q13 15 13 39q0 30 -16 45.5t-39 15.5t-39 -15.5t-16 -45.5q0 -22 15.5 -38t39.5 -16q29 0 42 15z" />
    <glyph glyph-name="fiveeighths" unicode="&#x215d;" horiz-adv-x="771" 
d="M63 333v60q42 -25 85 -25q64 0 64 49q0 63 -71 63q-16 0 -29.5 -4t-22 -8t-10.5 -5l-24 45l18 166h184v-59h-131l-10 -86q32 9 64 9q38 0 69 -25t31 -88q0 -64 -33 -89t-81 -25q-63 0 -103 22zM560 685h68l-407 -707h-68zM503.5 30.5q-30.5 33.5 -30.5 77.5
q0 29 13.5 48.5t30.5 30t17 8.5t-13.5 7.5t-24 27t-10.5 42.5q0 38 27 65t84 27q56 0 83 -27t27 -65q0 -26 -10 -43t-23 -26.5t-13 -7.5t16.5 -8.5t30 -30t13.5 -48.5q0 -44 -30.5 -77.5t-93.5 -33.5t-93.5 33.5zM628 233q11 13 11 31q0 42 -42 42q-16 0 -28.5 -10
t-12.5 -33q0 -17 10 -30t31 -13q20 0 31 13zM639 69q13 15 13 39q0 30 -16 45.5t-39 15.5t-39 -15.5t-16 -45.5q0 -22 15.5 -38t39.5 -16q29 0 42 15z" />
    <glyph glyph-name="seveneighths" unicode="&#x215e;" horiz-adv-x="751" 
d="M284 674v-37l-145 -322h-63l134 300h-170v59h244zM520 685h68l-407 -707h-68zM483.5 30.5q-30.5 33.5 -30.5 77.5q0 29 13.5 48.5t30.5 30t17 8.5t-13.5 7.5t-24 27t-10.5 42.5q0 38 27 65t84 27q56 0 83 -27t27 -65q0 -26 -10 -43t-23 -26.5t-13 -7.5t16.5 -8.5t30 -30
t13.5 -48.5q0 -44 -30.5 -77.5t-93.5 -33.5t-93.5 33.5zM608 233q11 13 11 31q0 42 -42 42q-16 0 -28.5 -10t-12.5 -33q0 -17 10 -30t31 -13q20 0 31 13zM619 69q13 15 13 39q0 30 -16 45.5t-39 15.5t-39 -15.5t-16 -45.5q0 -22 15.5 -38t39.5 -16q29 0 42 15z" />
    <glyph glyph-name="partialdiff" unicode="&#x2202;" horiz-adv-x="583" 
d="M162 25q-51 33 -74 84t-23 108q0 97 61 153t166 56q51 0 88.5 -13t61.5 -30q-15 136 -87.5 180.5t-147.5 44.5q-29 0 -57 -5v67q40 6 64 6q65 0 132.5 -26.5t120 -109t52.5 -235.5q0 -156 -57 -234.5t-170 -78.5q-79 0 -130 33zM361 72.5q32 12.5 58.5 66t27.5 164.5
q-59 56 -155 56q-75 0 -115 -36.5t-40 -104.5q0 -53 31 -105.5t124 -52.5q37 0 69 12.5z" />
    <glyph glyph-name="uni2206" unicode="&#x2206;" horiz-adv-x="729" 
d="M334 667h60l308 -667h-675zM594 69l-230 499l-230 -499h460z" />
    <glyph glyph-name="product" unicode="&#x220f;" horiz-adv-x="719" 
d="M167 451h-134v66h653v-66h-134v-583h-66v583h-253v-583h-66v583z" />
    <glyph glyph-name="summation" unicode="&#x2211;" horiz-adv-x="562" 
d="M77 72l167 261l-167 262v72h419v-66h-345l172 -268l-172 -268h345v-65h-419v72z" />
    <glyph glyph-name="minus" unicode="&#x2212;" horiz-adv-x="566" 
d="M80 287h406v-60h-406v60z" />
    <glyph glyph-name="uni2215" unicode="&#x2215;" horiz-adv-x="444" 
d="M390 685h68l-407 -707h-68z" />
    <glyph glyph-name="uni2219" unicode="&#x2219;" horiz-adv-x="311" 
d="M116 312h79v-80h-79v80z" />
    <glyph glyph-name="radical" unicode="&#x221a;" horiz-adv-x="719" 
d="M252 330h-158v54h208l109 -279l219 562h71l-260 -667h-60z" />
    <glyph glyph-name="infinity" unicode="&#x221e;" horiz-adv-x="756" 
d="M134.5 235.5q-32.5 15.5 -55 50t-22.5 86.5t22.5 86.5t55 50.5t64.5 16q95 0 177 -115q36 50 79.5 82.5t97.5 32.5q32 0 64.5 -16t55 -50.5t22.5 -86.5t-22.5 -86.5t-55 -50t-64.5 -15.5q-94 0 -177 114q-83 -114 -177 -114q-32 0 -64.5 15.5zM349 372q-72 108 -146 108
q-10 0 -31.5 -6.5t-42.5 -30.5t-21 -71t21 -71t42 -30t32 -6q75 0 146 107zM581 271q21 6 42 30t21 71t-21 71t-42.5 30.5t-31.5 6.5q-42 0 -78 -31t-68 -77q74 -107 146 -107q11 0 32 6z" />
    <glyph glyph-name="integral" unicode="&#x222b;" horiz-adv-x="330" 
d="M10 -120v65q5 -1 18 -1q32 0 52.5 6t35.5 31t15 79v448q0 83 29 123.5t62.5 50t69.5 9.5q12 0 30 -2v-65l-18 1q-32 0 -52.5 -6t-35.5 -31t-15 -79v-448q0 -83 -29 -123.5t-62.5 -50t-69.5 -9.5q-21 0 -30 2z" />
    <glyph glyph-name="approxequal" unicode="&#x2248;" horiz-adv-x="611" 
d="M100 380q42 39 94 39q26 0 51.5 -7.5t60.5 -21.5q37 -14 61.5 -21t49.5 -7q52 0 94 39v-60q-42 -39 -94 -39q-26 0 -51.5 7.5t-60.5 21.5q-37 14 -61.5 21t-49.5 7q-52 0 -94 -39v60zM100 223q42 39 94 39q26 0 51.5 -7.5t60.5 -21.5q37 -14 61.5 -21t49.5 -7q52 0 94 39
v-61q-42 -39 -94 -39q-24 0 -47.5 7t-63.5 22q-36 14 -61.5 21.5t-50.5 7.5q-52 0 -94 -39v60z" />
    <glyph glyph-name="notequal" unicode="&#x2260;" horiz-adv-x="611" 
d="M160 39l55 99h-102v60h135l53 94h-188v60h222l70 125l47 -27l-55 -98h101v-60h-135l-53 -94h188v-60h-221l-70 -125z" />
    <glyph glyph-name="lessequal" unicode="&#x2264;" horiz-adv-x="568" 
d="M108 384v53l350 146v-62l-266 -110l266 -111v-61zM108 202h350v-57h-350v57z" />
    <glyph glyph-name="greaterequal" unicode="&#x2265;" horiz-adv-x="568" 
d="M108 300l265 111l-265 110v62l350 -146v-53l-350 -145v61zM108 202h350v-57h-350v57z" />
    <glyph glyph-name="lozenge" unicode="&#x25ca;" horiz-adv-x="636" 
d="M64 333l254 370l254 -370l-254 -369zM508 333l-190 277l-190 -277l190 -276z" />
    <glyph glyph-name="uniE194" unicode="&#xe194;" horiz-adv-x="778" 
d="M218.5 38q-78.5 46 -124.5 124.5t-46 171.5q0 92 46 170.5t125 124.5t171 46q93 0 171.5 -46t124.5 -124.5t46 -170.5q0 -93 -46 -171.5t-124.5 -124.5t-171.5 -46t-171.5 46zM543.5 69q70.5 41 111.5 111.5t41 153.5t-41 153t-111.5 111.5t-153.5 41.5t-153 -41.5
t-111.5 -111.5t-41.5 -153t41.5 -153.5t111.5 -111.5t153 -41t153.5 41zM273 528h139q65 0 100 -31t35 -89t-35 -89.5t-100 -31.5h-97v-148h-42v389zM406 328q58 0 78 22.5t20 57.5t-20 57.5t-78 22.5h-91v-160h91z" />
    <glyph glyph-name="uniF6C3" unicode="&#xf6c3;" horiz-adv-x="0" 
d="M-185 -139q24 10 32 34.5t8 55.5h60q0 -65 -30 -100t-70 -44v54z" />
    <glyph glyph-name="uniF6C9" unicode="&#xf6c9;" horiz-adv-x="236" 
d="M117 839h74l-83 -115h-48z" />
    <glyph glyph-name="uniF6CA" unicode="&#xf6ca;" horiz-adv-x="406" 
d="M101 845h56l45 -71l45 71h56l-80 -121h-42z" />
    <glyph glyph-name="uniF6CB" unicode="&#xf6cb;" horiz-adv-x="385" 
d="M79 804h80v-80h-80v80zM227 804h80v-80h-80v80z" />
    <glyph glyph-name="uniF6CE" unicode="&#xf6ce;" horiz-adv-x="219" 
d="M46 839h74l57 -115h-48z" />
    <glyph glyph-name="uniF6CF" unicode="&#xf6cf;" horiz-adv-x="370" 
d="M117 839h74l-83 -115h-48zM237 839h74l-83 -115h-48z" />
    <glyph glyph-name="uniF6D0" unicode="&#xf6d0;" horiz-adv-x="403" 
d="M86 789h234v-53h-234v53z" />
    <glyph glyph-name="i.loclTRK" horiz-adv-x="240" 
d="M80 667h80v-79h-80v79zM84 499h72v-499h-72v499z" />
    <glyph glyph-name="zero.zero" horiz-adv-x="646" 
d="M586 331q0 -342 -263 -342q-65 0 -117 23l-47 -110h-65l61 142q-95 83 -95 287q0 170 66 256t197 86q52 0 96 -14l42 97h66l-54 -124q113 -78 113 -301zM184 112l209 485q-29 10 -70 10q-53 0 -94.5 -20t-69 -81t-27.5 -175q0 -150 52 -219zM418 75q41 20 68.5 81
t27.5 175q0 172 -69 236l-212 -494q36 -18 90 -18t95 20z" />
    <glyph glyph-name="zero.dnom" horiz-adv-x="379" 
d="M48 179q0 184 142 184q70 0 105.5 -46.5t35.5 -137.5t-35.5 -137.5t-105.5 -46.5q-142 0 -142 184zM244.5 73.5q25.5 28.5 25.5 105.5t-25.5 105.5t-54.5 28.5t-55 -28.5t-26 -105.5t26 -105.5t55 -28.5t54.5 28.5z" />
    <glyph glyph-name="one.dnom" horiz-adv-x="234" 
d="M163 360v-359h-68v268l-42 -27v76l66 42h44z" />
    <glyph glyph-name="two.dnom" horiz-adv-x="328" 
d="M279 60v-59h-226v34q56 42 104 103t48 114q0 22 -18 36.5t-47 14.5q-22 0 -44.5 -9t-38.5 -21v64q44 27 97 27q61 0 90.5 -29.5t29.5 -70.5q0 -49 -35.5 -103t-88.5 -101h129z" />
    <glyph glyph-name="three.dnom" horiz-adv-x="323" 
d="M53 19v62q44 -24 91 -24q30 0 50 13.5t20 42.5q0 25 -21 37.5t-51 12.5h-39v57h41q21 0 36 11t15 37q0 15 -15.5 25t-40.5 10q-41 0 -77 -19v62q40 18 82 18q61 0 90 -28.5t29 -67.5q0 -24 -10 -40t-23 -25t-13 -8q4 -3 22 -12.5t30 -29.5t12 -50q0 -44 -32.5 -75
t-99.5 -31q-50 0 -96 22z" />
    <glyph glyph-name="four.dnom" horiz-adv-x="328" 
d="M293 145v-56h-51v-88h-69v88h-144v61l170 210h43v-215h51zM173 145v98l-81 -98h81z" />
    <glyph glyph-name="five.dnom" horiz-adv-x="319" 
d="M63 19v60q42 -25 85 -25q64 0 64 49q0 63 -71 63q-16 0 -29.5 -4t-22 -8t-10.5 -5l-24 45l18 166h184v-59h-131l-10 -86q32 9 64 9q38 0 69 -25t31 -88q0 -64 -33 -89t-81 -25q-63 0 -103 22z" />
    <glyph glyph-name="six.dnom" horiz-adv-x="338" 
d="M61.5 38q-35.5 41 -35.5 127q0 120 56 159.5t138 39.5q22 0 52 -6v-57q-24 7 -48 7q-40 0 -79.5 -20.5t-47.5 -80.5q33 23 81 23q56 0 89 -30t33 -82q0 -49 -30 -85t-92 -36q-81 0 -116.5 41zM216.5 69.5q14.5 16.5 14.5 48.5q0 22 -19.5 39t-46.5 17q-23 0 -41 -9.5
t-29 -20.5q1 -53 23 -72t50 -19q34 0 48.5 16.5z" />
    <glyph glyph-name="seven.dnom" horiz-adv-x="315" 
d="M284 360v-37l-145 -322h-63l134 300h-170v59h244z" />
    <glyph glyph-name="eight.dnom" horiz-adv-x="332" 
d="M73.5 30.5q-30.5 33.5 -30.5 77.5q0 29 13.5 48.5t30.5 30t17 8.5t-13.5 7.5t-24 27t-10.5 42.5q0 38 27 65t84 27q56 0 83 -27t27 -65q0 -26 -10 -43t-23 -26.5t-13 -7.5t16.5 -8.5t30 -30t13.5 -48.5q0 -44 -30.5 -77.5t-93.5 -33.5t-93.5 33.5zM198 233q11 13 11 31
q0 42 -42 42q-16 0 -28.5 -10t-12.5 -33q0 -17 10 -30t31 -13q20 0 31 13zM209 69q13 15 13 39q0 30 -16 45.5t-39 15.5t-39 -15.5t-16 -45.5q0 -22 15.5 -38t39.5 -16q29 0 42 15z" />
    <glyph glyph-name="nine.dnom" horiz-adv-x="338" 
d="M57 4v56q24 -7 48 -7q40 0 79.5 20.5t47.5 80.5q-33 -23 -81 -23q-56 0 -89 30t-33 82q0 49 30 85t92 36q81 0 116.5 -41t35.5 -127q0 -120 -56 -159.5t-137 -39.5q-27 0 -53 7zM202.5 196.5q20.5 9.5 31.5 20.5q0 55 -22.5 73t-60.5 18q-31 0 -42 -21t-11 -44
q0 -21 17 -38.5t36 -17.5q31 0 51.5 9.5z" />
    <glyph glyph-name="zero.numr" horiz-adv-x="379" 
d="M48 493q0 184 142 184q70 0 105.5 -46.5t35.5 -137.5t-35.5 -137.5t-105.5 -46.5q-142 0 -142 184zM244.5 387.5q25.5 28.5 25.5 105.5t-25.5 105.5t-54.5 28.5t-55 -28.5t-26 -105.5t26 -105.5t55 -28.5t54.5 28.5z" />
    <glyph glyph-name="one.numr" horiz-adv-x="234" 
d="M163 674v-359h-68v268l-42 -27v76l66 42h44z" />
    <glyph glyph-name="two.numr" horiz-adv-x="328" 
d="M279 374v-59h-226v34q56 42 104 103t48 114q0 22 -18 36.5t-47 14.5q-22 0 -44.5 -9t-38.5 -21v64q44 27 97 27q61 0 90.5 -29.5t29.5 -70.5q0 -49 -35.5 -103t-88.5 -101h129z" />
    <glyph glyph-name="three.numr" horiz-adv-x="323" 
d="M53 333v62q44 -24 91 -24q30 0 50 13.5t20 42.5q0 25 -21 37.5t-51 12.5h-39v57h41q21 0 36 11t15 37q0 15 -15.5 25t-40.5 10q-41 0 -77 -19v62q40 18 82 18q61 0 90 -28.5t29 -67.5q0 -24 -10 -40t-23 -25t-13 -8q4 -3 22 -12.5t30 -29.5t12 -50q0 -44 -32.5 -75
t-99.5 -31q-50 0 -96 22z" />
    <glyph glyph-name="four.numr" horiz-adv-x="328" 
d="M293 459v-56h-51v-88h-69v88h-144v61l170 210h43v-215h51zM173 459v98l-81 -98h81z" />
    <glyph glyph-name="five.numr" horiz-adv-x="319" 
d="M63 333v60q42 -25 85 -25q64 0 64 49q0 63 -71 63q-16 0 -29.5 -4t-22 -8t-10.5 -5l-24 45l18 166h184v-59h-131l-10 -86q32 9 64 9q38 0 69 -25t31 -88q0 -64 -33 -89t-81 -25q-63 0 -103 22z" />
    <glyph glyph-name="six.numr" horiz-adv-x="338" 
d="M61.5 352q-35.5 41 -35.5 127q0 120 56 159.5t138 39.5q22 0 52 -6v-57q-24 7 -48 7q-40 0 -79.5 -20.5t-47.5 -80.5q33 23 81 23q56 0 89 -30t33 -82q0 -49 -30 -85t-92 -36q-81 0 -116.5 41zM216.5 383.5q14.5 16.5 14.5 48.5q0 22 -19.5 39t-46.5 17q-23 0 -41 -9.5
t-29 -20.5q1 -53 23 -72t50 -19q34 0 48.5 16.5z" />
    <glyph glyph-name="seven.numr" horiz-adv-x="315" 
d="M284 674v-37l-145 -322h-63l134 300h-170v59h244z" />
    <glyph glyph-name="eight.numr" horiz-adv-x="332" 
d="M73.5 344.5q-30.5 33.5 -30.5 77.5q0 29 13.5 48.5t30.5 30t17 8.5t-13.5 7.5t-24 27t-10.5 42.5q0 38 27 65t84 27q56 0 83 -27t27 -65q0 -26 -10 -43t-23 -26.5t-13 -7.5t16.5 -8.5t30 -30t13.5 -48.5q0 -44 -30.5 -77.5t-93.5 -33.5t-93.5 33.5zM198 547q11 13 11 31
q0 42 -42 42q-16 0 -28.5 -10t-12.5 -33q0 -17 10 -30t31 -13q20 0 31 13zM209 383q13 15 13 39q0 30 -16 45.5t-39 15.5t-39 -15.5t-16 -45.5q0 -22 15.5 -38t39.5 -16q29 0 42 15z" />
    <glyph glyph-name="nine.numr" horiz-adv-x="338" 
d="M57 318v56q24 -7 48 -7q40 0 79.5 20.5t47.5 80.5q-33 -23 -81 -23q-56 0 -89 30t-33 82q0 49 30 85t92 36q81 0 116.5 -41t35.5 -127q0 -120 -56 -159.5t-137 -39.5q-27 0 -53 7zM202.5 510.5q20.5 9.5 31.5 20.5q0 55 -22.5 73t-60.5 18q-31 0 -42 -21t-11 -44
q0 -21 17 -38.5t36 -17.5q31 0 51.5 9.5z" />
    <glyph glyph-name="periodcentered.loclCAT.case" horiz-adv-x="311" 
d="M116 312h79v-80h-79v80z" />
    <glyph glyph-name="periodcentered.loclCAT" horiz-adv-x="311" 
d="M116 312h79v-80h-79v80z" />
    <glyph glyph-name="uni0326.alt" horiz-adv-x="0" 
d="M-185 -139q24 10 32 34.5t8 55.5h60q0 -65 -30 -100t-70 -44v54z" />
    <glyph glyph-name="uni0308.case" horiz-adv-x="0" 
d="M-306 769h79v-79h-79v79zM-158 769h79v-79h-79v79z" />
    <glyph glyph-name="uni0307.case" horiz-adv-x="0" 
d="M-198 783h79v-79h-79v79z" />
    <glyph glyph-name="gravecomb.case" horiz-adv-x="0" 
d="M-180 667h74l57 -115h-48z" />
    <glyph glyph-name="acutecomb.case" horiz-adv-x="0" 
d="M-119 679h74l-83 -115h-48z" />
    <glyph glyph-name="uni030B.case" horiz-adv-x="0" 
d="M-253 819h74l-83 -115h-48zM-133 819h74l-83 -115h-48z" />
    <glyph glyph-name="uni0302.case" horiz-adv-x="0" 
d="M-230 841h61l80 -120h-46l-65 70l-65 -70h-46z" />
    <glyph glyph-name="uni030C.case" horiz-adv-x="0" 
d="M-305 824h56l45 -70l45 70h56l-80 -120h-41z" />
    <glyph glyph-name="uni0306.case" horiz-adv-x="0" 
d="M-298.5 714.5q-36.5 29.5 -48.5 84.5h52q23 -62 83 -62q58 0 83 62h52q-10 -55 -47 -84.5t-88 -29.5q-50 0 -86.5 29.5z" />
    <glyph glyph-name="uni030A.case" horiz-adv-x="0" 
d="M-289.5 697q-23.5 22 -23.5 70t23.5 70t77.5 22q53 0 77 -22t24 -70t-24 -70t-77 -22q-54 0 -77.5 22zM-169.5 729q11.5 11 11.5 38t-11.5 37.5t-42.5 10.5q-32 0 -43.5 -10.5t-11.5 -37.5t11.5 -38t43.5 -11q31 0 42.5 11z" />
    <glyph glyph-name="tildecomb.case" horiz-adv-x="0" 
d="M-397 727q-4 15 -4 30q0 37 23.5 59.5t53.5 22.5q24 0 42.5 -9.5t43.5 -27.5q16 -13 27 -19.5t23 -6.5t19 8t7 23q0 5 -2 17h52q2 -14 2 -21q0 -37 -23.5 -60t-62.5 -23q-22 0 -41 10t-41 27q-16 13 -26.5 19t-20.5 6q-12 0 -20 -9.5t-8 -27.5q0 -4 2 -18h-46z" />
    <glyph glyph-name="uni0304.case" horiz-adv-x="0" 
d="M-317 769h234v-53h-234v53z" />
    <glyph glyph-name="hookabovecomb.case" horiz-adv-x="0" 
d="M-142 754q19 1 28.5 8t9.5 16q0 13 -12.5 19.5t-35.5 6.5q-11 0 -27 -2v43q15 3 31 3q38 0 65 -16t27 -52q0 -20 -13 -34.5t-40 -19.5v-24h-33v52z" />
    <glyph glyph-name="uni030F.case" horiz-adv-x="0" 
d="M-300 679h74l57 -115h-48zM-177 679h74l57 -115h-48z" />
    <glyph glyph-name="uni0311.case" horiz-adv-x="0" 
d="M-124 759.5q37 -29.5 47 -84.5h-52q-25 62 -83 62q-60 0 -83 -62h-52q12 55 48.5 84.5t86.5 29.5q51 0 88 -29.5z" />
    <glyph glyph-name="uni031B.case" horiz-adv-x="0" 
d="M-234 616q28 0 51 20.5t23 47.5v26h54v-28q0 -54 -37 -86t-89 -32z" />
    <glyph glyph-name="dotbelowcomb.case" horiz-adv-x="0" 
d="M-129 -50h79v-79h-79v79z" />
    <glyph glyph-name="uni0324.case" horiz-adv-x="0" 
d="M-306 -42h79v-79h-79v79zM-158 -42h79v-79h-79v79z" />
    <glyph glyph-name="uni0326.case" horiz-adv-x="0" 
d="M-185 -139q24 10 32 34.5t8 55.5h60q0 -65 -30 -100t-70 -44v54z" />
    <glyph glyph-name="uni0327.case" horiz-adv-x="0" 
d="M-115 -5h57l-63 -115h-76z" />
    <glyph glyph-name="uni0328.case" horiz-adv-x="0" 
d="M-235.5 -151q-23.5 22 -23.5 61q0 26 19.5 53t53.5 41l78 -4q-42 -20 -67 -42t-25 -43q0 -34 34 -34q28 0 55 27v-63q-32 -18 -60 -18q-41 0 -64.5 22z" />
    <glyph glyph-name="uni032E.case" horiz-adv-x="0" 
d="M-298.5 -111.5q-36.5 29.5 -48.5 84.5h52q23 -62 83 -62q58 0 83 62h52q-10 -55 -47 -84.5t-88 -29.5q-50 0 -86.5 29.5z" />
    <glyph glyph-name="uni0331.case" horiz-adv-x="0" 
d="M-317 -66h234v-53h-234v53z" />
    <glyph glyph-name="uni03060301" horiz-adv-x="0" 
d="M-271.5 574.5q-36.5 29.5 -48.5 84.5h52q23 -62 83 -62q58 0 83 62h52q-10 -55 -47 -84.5t-88 -29.5q-50 0 -86.5 29.5zM-160 785h74l-83 -115h-48z" />
    <glyph glyph-name="uni03060300" horiz-adv-x="0" 
d="M-321.5 574.5q-36.5 29.5 -48.5 84.5h52q23 -62 83 -62q58 0 83 62h52q-10 -55 -47 -84.5t-88 -29.5q-50 0 -86.5 29.5zM-340 779h73l57 -115h-47z" />
    <glyph glyph-name="uni03060309" horiz-adv-x="0" 
d="M-298.5 574.5q-36.5 29.5 -48.5 84.5h52q23 -62 83 -62q58 0 83 62h52q-10 -55 -47 -84.5t-88 -29.5q-50 0 -86.5 29.5zM-237 716q19 1 28.5 8t9.5 16q0 13 -12.5 19.5t-35.5 6.5q-11 0 -27 -2v43q15 3 31 3q38 0 65 -16t27 -52q0 -20 -13 -34.5t-40 -19.5v-24h-33v52z
" />
    <glyph glyph-name="uni03060303" horiz-adv-x="0" 
d="M-282.5 574.5q-36.5 29.5 -48.5 84.5h52q23 -62 83 -62q58 0 83 62h52q-10 -55 -47 -84.5t-88 -29.5q-50 0 -86.5 29.5zM-337 694q-4 15 -4 30q0 37 23.5 59.5t53.5 22.5q24 0 42.5 -9.5t43.5 -27.5q16 -13 27 -19.5t23 -6.5t19 8t7 23q0 5 -2 17h52q2 -14 2 -21
q0 -37 -23.5 -60t-62.5 -23q-22 0 -41 10t-41 27q-16 13 -26.5 19t-20.5 6q-12 0 -20 -9.5t-8 -27.5q0 -4 2 -18h-46z" />
    <glyph glyph-name="uni03020301" horiz-adv-x="0" 
d="M-294 684h61l80 -120h-46l-65 70l-65 -70h-46zM-124 751h74l-83 -115h-48z" />
    <glyph glyph-name="uni03020300" horiz-adv-x="0" 
d="M-232 684h61l80 -120h-46l-65 70l-65 -70h-46zM-441 745h74l57 -115h-48z" />
    <glyph glyph-name="uni03020309" horiz-adv-x="0" 
d="M-230 679h61l80 -120h-46l-65 70l-65 -70h-46zM-84 663q19 1 28.5 8t9.5 16q0 13 -12.5 19.5t-35.5 6.5q-11 0 -27 -2v43q15 3 31 3q38 0 65 -16t27 -52q0 -20 -13 -34.5t-40 -19.5v-24h-33v52z" />
    <glyph glyph-name="uni03020303" horiz-adv-x="0" 
d="M-220 664h61l80 -120h-46l-65 70l-65 -70h-46zM-332 699q-4 15 -4 30q0 37 23.5 59.5t53.5 22.5q24 0 42.5 -9.5t43.5 -27.5q16 -13 27 -19.5t23 -6.5t19 8t7 23q0 5 -2 17h52q2 -14 2 -21q0 -37 -23.5 -60t-62.5 -23q-22 0 -41 10t-41 27q-16 13 -26.5 19t-20.5 6
q-12 0 -20 -9.5t-8 -27.5q0 -4 2 -18h-46z" />
    <glyph glyph-name="IJacute" horiz-adv-x="695" 
d="M85 667h72v-667h-72v667zM287 27v75q57 -40 123 -40q68 0 98 33.5t30 109.5v462h72v-468q0 -116 -55.5 -161.5t-135.5 -45.5q-72 0 -132 35zM146 847h74l-83 -115h-48zM609 847h74l-83 -115h-48z" />
    <glyph glyph-name="ijacute" horiz-adv-x="483" 
d="M80 499h72v-499h-72v499zM235 -126q42 1 64 12.5t30 32.5t8 56v524h72v-528q0 -83 -43 -123.5t-131 -40.5v67zM147 679h74l-83 -115h-48zM410 679h74l-83 -115h-48z" />
    <glyph glyph-name="caronalt" horiz-adv-x="255" 
d="M121 676h82l-84 -196h-72z" />
    </font>
</defs>
</svg>
